<?xml version="1.0" standalone="no"?>
<!DOCTYPE svg PUBLIC "-//W3C//DTD SVG 1.1//EN" "http://www.w3.org/Graphics/SVG/1.1/DTD/svg11.dtd" >
<svg xmlns="http://www.w3.org/2000/svg">
<metadata>Generated by IcoMoon</metadata>
<defs>
<font id="icomoon" horiz-adv-x="1024">
<font-face units-per-em="1024" ascent="960" descent="-64" />
<missing-glyph horiz-adv-x="1024" />
<glyph unicode="&#x20;" horiz-adv-x="512" d="" />
<glyph unicode="&#xe900;" glyph-name="facebook-sq" d="M-128 448v640h1280v-1280h-1280v640zM576 220.571v190.857h127.913l1.102 5.143c1.857 8.668 17.271 131.531 17.271 137.669v5.76h-146.73l0.975 60c1.095 67.359 2.364 73.969 17.090 89.058 14.092 14.439 22.227 16.142 82.378 17.249l53.143 0.978v131.635l-7.429 1.346c-4.086 0.74-29.824 2.43-57.196 3.755-75.007 3.632-110.775-1.377-147.884-20.711-38.796-20.213-65.928-51.632-80.281-92.966-10.59-30.499-11.639-40.033-12.823-116.629l-1.14-73.714h-127.532v-148.571h128v-189.333c0-104.133 0.686-190.019 1.524-190.857s35.295-1.524 76.571-1.524h75.048v190.857z" />
<glyph unicode="&#xe901;" glyph-name="flickr-sq" d="M-128 448v640h1280v-1280h-1280v640zM320.437 288.017c46.493 6.725 86.401 32.843 113.742 74.439 32.652 49.677 32.652 121.411 0 171.088-42.785 65.093-117.273 91.383-190.659 67.292-30.601-10.046-62.927-36.124-83.414-67.292-32.652-49.677-32.652-121.411 0-171.088 24.306-36.979 62.467-64.3 100.465-71.927 25.845-5.188 37.876-5.692 59.866-2.512zM750.151 288.017c23.128 3.345 44.304 11.151 62.25 22.947 65.232 42.876 91.397 117.228 67.197 190.947-13.702 41.738-57.219 85.171-99.119 98.925-73.386 24.091-147.874-2.199-190.659-67.292-32.647-49.669-32.653-121.367-0.013-171.088 36.57-55.709 96.733-83.64 160.344-74.439z" />
<glyph unicode="&#xe902;" glyph-name="google-plus-sq" d="M-128 448v640h1280v-1280h-1280v640zM408.461 201.193c69.378 8.699 126.11 42.349 162.694 96.5 28.29 41.874 44.461 108.545 38.99 160.758-1.044 9.967-1.954 18.892-2.022 19.835s-52.58 1.714-116.695 1.714h-116.571v-84.572h69.714c43.141 0 69.714-0.839 69.714-2.2 0-6.196-10.931-30.457-19.774-43.887-16.197-24.599-37.874-40.931-68.227-51.404-16.356-5.643-21.542-6.319-49.143-6.407-28.823-0.091-32.156 0.366-50.555 6.952-47.187 16.889-81.529 52.293-97.317 100.327-5.212 15.857-6.026 22.194-6.026 46.905 0 24.738 0.81 31.025 6.034 46.857 8.203 24.859 20.418 44.989 38.151 62.868 27.384 27.611 60.863 42.779 99.51 45.084 34.618 2.065 64.384-6.342 91.851-25.941l14.523-10.363 24.487 22.836c13.468 12.56 28.447 26.931 33.288 31.936l8.801 9.1-15.514 12.797c-20.861 17.207-60.215 36.66-88.385 43.69-82.49 20.585-168.969-1.921-230.53-59.994-98.638-93.050-102.886-249.245-9.472-348.269 54.104-57.353 132.667-85.13 212.474-75.123zM832.512 375.429l0.631 34.857 69.714 1.262v68.333l-69.714 1.262-1.262 69.714h-70.738v-70.857h-68.571v-68.572h68.571v-70.857h70.738l0.631 34.857z" />
<glyph unicode="&#xe903;" glyph-name="hatebu-sq" d="M-128 448v640h1280v-1280h-1280v640zM776.449 194.297c14.191 6.205 28.964 22.149 34.681 37.43 9.319 24.906 4.812 50.501-12.228 69.455-27.123 30.167-74.546 29.762-101.506-0.865-39.361-44.716-2.217-117.512 56.89-111.493 6.914 0.704 16.888 3.167 22.163 5.474zM416 193.106c47.873 0.887 61.645 1.897 77.088 5.653 62.040 15.091 101.524 52.97 110.465 105.974 4.231 25.086 1.729 65.403-5.23 84.246-10.891 29.494-27.887 49.059-54.187 62.376-12.959 6.562-33.105 12.644-41.883 12.644-10.51 0-6.29 4.94 8.403 9.837 19.046 6.349 46.39 25.556 55.528 39.006 11.537 16.98 15.36 32.67 15.389 63.157 0.021 21.523-0.932 29.087-5.257 41.747-9.304 27.238-27.878 47.277-57.867 62.432-29.585 14.95-42.204 17.181-109.305 19.32-33.314 1.062-93.229 1.995-133.143 2.073l-72.571 0.142v-254.476c0-139.962 0.632-255.108 1.404-255.88 1.327-1.327 80.64-0.67 211.168 1.748zM342.286 282.904l-6.286 0.828v109.411l36-0.075c47.519-0.099 64.508-2.409 77.932-10.599 14.375-8.77 23.211-25.775 23.211-44.667 0-31.693-17.639-47.36-58.378-51.85-23.538-2.594-63.246-4.264-72.479-3.048zM333.739 529.714c0.015 23.571 0.687 46.866 1.497 51.765l1.471 8.908 29.932-1.455c33.871-1.646 59.227-6.352 67.646-12.556 8.178-6.026 15.97-21.157 17.48-33.944 2.588-21.924-6.963-40.357-24.559-47.398-9.261-3.706-51.362-8.025-79.206-8.126l-14.286-0.052 0.025 42.857zM809.143 531.429v172.571h-121.143v-345.143h121.143v172.571z" />
<glyph unicode="&#xe904;" glyph-name="instagram-sq" d="M-128 448v640h1280v-1280h-1280v640zM882.286 43.602c15.001 3.423 26.381 12.259 33.067 25.677l5.79 11.619v447.102h-48.154c-44.806 0-48.068-0.278-46.923-4 4.079-13.255 8.202-51.459 8.202-76 0-64.618-17.82-124.068-53.292-177.787-49.004-74.212-125.502-124.436-215.262-141.327-26.916-5.065-79.541-5.151-107.429-0.176-50.443 9-102.874 31.238-140.723 59.687-67.711 50.894-114.179 128.434-126.81 211.602-5.504 36.244-3.195 94.149 4.901 122.857l1.45 5.143h-89.676l0.050-223.429c0.048-212.11 0.264-223.898 4.261-232.699 5.473-12.050 21.28-25.458 33.162-28.13 13.488-3.033 724.114-3.169 737.384-0.141zM565.238 253.431c35.537 9.763 68.629 30.223 94.77 58.593 64.284 69.764 70.73 175.717 15.437 253.701-13.831 19.507-41.398 44.869-61.665 56.733-36.391 21.303-84.418 31.698-124.134 26.869-47.335-5.755-84.781-23.381-119.049-56.035-60.259-57.423-78.661-148.106-45.581-224.621 29.606-68.479 94.907-115.84 167.556-121.524 24.614-1.926 51.122 0.367 72.666 6.286zM890.017 653.612c9.631 3.662 23.793 18.133 27.663 28.268 3.121 8.173 3.563 19.571 2.991 77.17l-0.671 67.581-6.235 9.416c-3.429 5.179-11.143 12.301-17.143 15.828l-10.908 6.412h-68.571c-74.973 0-74.68 0.046-88.946-14.073-14.205-14.059-14.95-18.415-14.991-87.641-0.023-36.974 0.95-66.412 2.36-71.491 2.935-10.569 13.752-23.274 24.778-29.101 7.539-3.985 13.908-4.357 76.079-4.45 37.866-0.057 70.389 0.864 73.595 2.083z" />
<glyph unicode="&#xe905;" glyph-name="line-sq" d="M-128 448v640h1280v-1280h-1280v640zM523.976 45.235c57.881 28.921 173.583 107.388 241.738 163.942 48.547 40.284 98.541 93.472 122.43 130.252 34.706 53.435 49.633 102.030 49.498 161.143-0.186 81.465-31.52 152.524-95.247 216.002-32.942 32.814-60.329 52.712-101.824 73.982-50.754 26.016-97.572 41.013-155.429 49.788-36.32 5.509-110.25 5.486-146.204-0.044-175.674-27.021-306.27-130.444-344.649-272.939-5.454-20.249-5.998-26.171-6.137-66.79-0.144-41.949 0.232-46.050 6.396-69.714 15.74-60.429 45.396-109.72 93.845-155.977 62.072-59.264 142.011-97.36 240.392-114.561 26.118-4.567 39.928-9.913 47.646-18.447 6.832-7.554 7.227-27.717 1.26-64.294-4.943-30.297-4.996-31.984-1.207-37.767 3.65-5.571 4.949-5.972 16.289-5.032 8.362 0.693 18.391 4.054 31.203 10.456zM249.834 389.022c-11.514 5.563-12.12 10.733-12.12 103.397 0 91.463 0.743 98.434 11.085 103.969 8.017 4.291 20.126 2.929 27.073-3.044l6.413-5.514 1.314-158.115h35.035c31.645 0 35.601-0.445 40.882-4.599 7.279-5.726 9.829-16.349 6.091-25.374-5.096-12.302-10.656-13.472-63.208-13.301-28.526 0.093-49.551 1.125-52.565 2.581zM395.253 392.967l-6.681 6.681v185.144l5.917 7.033c8.039 9.554 22.476 10.015 31.485 1.007l6.026-6.026v-187.157l-6.681-6.681c-4.947-4.946-8.85-6.681-15.033-6.681s-10.086 1.735-15.033 6.681zM473.318 392.203l-7.033 5.917v189.516l5.61 5.61c6.531 6.531 20.195 7.636 27.878 2.254 2.635-1.846 24.207-29.868 47.937-62.271l43.146-58.915 2.286 113.518 6.413 5.512c4.46 3.833 9.191 5.512 15.532 5.512 11.942 0 19.454-7.307 21.441-20.856 0.807-5.501 1.146-47.887 0.755-94.191l-0.712-84.19-7.465-6.667c-7.929-7.082-15.056-8.285-24.257-4.093-3.253 1.482-24.397 28.122-49.822 62.769l-44.171 60.194-1.143-55.34c-1.221-59.107-2.135-63.944-12.859-68.021-9.408-3.577-16.105-2.512-23.537 3.741zM674.11 392.967l-6.681 6.681v91.755c0 93.786 0.355 97.929 8.945 104.524 5.138 3.944 104.973 3.944 110.11 0 10.868-8.345 11.927-24.154 2.263-33.817l-6.681-6.681h-71.387l1.321-40 71.69-1.258 5.869-6.975c8.23-9.781 7.925-20.921-0.812-29.658l-6.681-6.681h-71.387l1.321-40 71.69-1.258 5.869-6.975c8.23-9.781 7.925-20.921-0.812-29.658l-6.681-6.681h-101.275l-6.681 6.681z" />
<glyph unicode="&#xe906;" glyph-name="pinterest-sq" d="M-128 448v640h1280v-1280h-1280v640zM358.271 23.629c41.671 45.208 70.005 112.971 90.948 217.514 3.274 16.343 6.36 30.989 6.857 32.547 0.564 1.769 12.474-4.761 31.711-17.385 42.204-27.698 53.236-31.181 98.498-31.1 28.533 0.051 37.283 0.919 52.15 5.177 26.629 7.626 43.983 15.499 65.316 29.633 74.559 49.395 121.82 145.366 127.471 258.844 4.574 91.862-21.065 162.892-78.222 216.706-42.245 39.774-94.325 64.73-161.604 77.438-30.672 5.794-113.934 5.793-141.11-0.001-134.525-28.681-234.348-127.194-252.456-249.145-8.837-59.514-0.212-121.655 22.008-158.564 15.446-25.656 48.397-49.705 79.232-57.825 12.12-3.192 13.74-1.565 21.105 21.183 6.776 20.931 5.189 36.405-5.795 56.493-20.827 38.090-24.146 46.588-26.731 68.454-5.045 42.669 5.954 91.953 29.198 130.828 30.714 51.368 90.912 95.751 151.486 111.687 99.812 26.26 201.155-17.38 233.118-100.383 19.431-50.46 21.245-117.622 4.914-181.948-26.583-104.708-93.349-162.661-165.884-143.989-19.074 4.91-32.807 13.993-40.868 27.032-5.85 9.462-6.926 13.75-7.744 30.855-1.185 24.786 2.635 44.236 19.252 98.019 18.87 61.075 23.734 83 23.712 106.872-0.016 16.93-0.997 22.671-5.543 32.435-9.472 20.345-34.173 33.614-62.166 33.395-39.070-0.305-72.411-35.756-85.557-90.973-4.076-17.119-4.724-25.366-3.865-49.143 0.887-24.552 1.938-30.822 7.466-44.571 3.709-9.225 6.321-19.871 6.169-25.143-0.24-8.291-8.755-43.203-34.593-141.831-26.275-100.295-35.478-176.538-29.921-247.884 1.518-19.486 3.252-36.226 3.854-37.2 1.425-2.306 15.679 9.043 27.597 21.972z" />
<glyph unicode="&#xe907;" glyph-name="feedly-sq" d="M-128 448v640h1280v-1280h-1280v640zM626.030 89.281c27.303 6.294 28.262 7.127 155.553 135.076 141.593 142.325 136.131 135.239 136.131 176.603 0 24.111-0.393 26.244-7.632 41.373-7.192 15.031-17.234 25.532-174.019 181.963-148.526 148.191-167.95 166.78-180.947 173.179-28.236 13.901-57.826 13.985-85.736 0.245-12.333-6.072-34.596-27.376-180.971-173.179-157.627-157.011-167.331-167.143-174.516-182.208-7.198-15.092-7.608-17.313-7.608-41.191 0-42.033-6.357-33.813 136.894-177.007 68.791-68.764 126.018-124.145 130.938-126.715 18.76-9.8 24.662-10.25 135.596-10.353 63.917-0.059 110.284 0.823 116.316 2.214zM472.414 187.134c-11.245 11.491-19.842 22.212-19.842 24.743 0 2.665 10.833 15.223 26.857 31.134 20.149 20.007 28.315 26.672 32.693 26.685 4.434 0.018 12.256-6.483 32.571-27.052 14.705-14.888 26.736-28.906 26.736-31.151s-8.929-13.207-19.842-24.36l-19.842-20.277h-39.488l-19.842 20.277zM378.809 280.617c-14.472 14.539-19.952 21.623-19.952 25.791 0 7.981 143.257 151.497 152.359 152.635 5.099 0.637 10.342-3.516 33.135-26.25 16.343-16.3 27.078-28.799 27.078-31.526 0-2.873-24.744-29.314-67.949-72.607l-67.949-68.088h-36.769l-19.952 20.045zM284.264 375.278c-13.472 13.211-21.406 22.76-21.406 25.762 0 3.252 38.536 43.292 121.139 125.865 94.151 94.117 122.54 121.24 127.429 121.747 5.344 0.554 10.374-3.45 33.453-26.627 23.028-23.125 26.954-28.096 25.79-32.651-0.755-2.955-53.116-57.059-116.359-120.231l-114.986-114.857h-33.653l-21.406 20.993z" />
<glyph unicode="&#xe908;" glyph-name="rss-sq" d="M-128 448v640h1280v-1280h-1280v640zM651.429 52.661c0 38.217-10.349 98.917-24.281 142.418-24.813 77.476-64.71 144.335-120.774 202.397-93.836 97.179-209.972 150.475-346.945 159.216l-24.571 1.568v-150.993l20-1.523c97.204-7.403 178.878-45.303 243.591-113.038 60.525-63.35 96-144.705 101.37-232.47l1.448-23.665h150.162v16.090zM917.131 65.143c-3.611 169.649-69.131 341.176-182.623 478.090-23.336 28.152-81.837 85.556-110.507 108.435-133.551 106.575-284.769 163.418-458.857 172.485l-30.286 1.577v-151.004l24.571-1.477c140.023-8.418 253.233-50.090 362.849-133.563 28.895-22.003 81.759-74.339 105.789-104.73 82.012-103.724 128.543-224.531 137.604-357.258 1.244-18.219 2.277-34.94 2.295-37.157 0.032-3.781 4.684-3.994 74.891-3.429l74.857 0.603-0.584 27.429zM269.506 43.188c72.246 22.485 97.382 112.937 46.967 169.010-33.308 37.047-88.71 45.571-131.852 20.288-12.2-7.15-31.745-27.562-37.831-39.51-16.659-32.706-15.655-73.479 2.577-104.589 6.541-11.161 27.837-31.65 38.909-37.433 23.717-12.389 56.351-15.508 81.23-7.765z" />
<glyph unicode="&#xe909;" glyph-name="twitter-sq" d="M-128 448v640h1280v-1280h-1280v640zM444.509 172.57c90.889 12.095 168.771 50.045 232.198 113.145 42.882 42.66 73.696 88.782 95.63 143.135 21.366 52.945 29.502 90.171 31.496 144.108l1.367 36.957 20.052 17.235c16.762 14.407 49.459 51.208 52.048 58.582 0.402 1.143-5.313-0.376-12.698-3.378-13.703-5.568-42.448-13.323-58.889-15.887l-9.143-1.426 6.857 5.191c20.953 15.863 39.637 38.392 49.055 59.149 7.101 15.652 6.164 16.588-8.969 8.949-19.584-9.886-44.558-19.435-62.439-23.873l-15.495-3.846-12.843 11.447c-14.699 13.101-38.917 25.723-59.354 30.933-17.722 4.519-52.317 4.573-71.24 0.112-40.838-9.628-77.253-38.962-96.434-77.682-12.629-25.495-16.79-46.388-15.196-76.311l1.265-23.748-18.747 1.55c-55.016 4.548-122.441 26.943-173.798 57.726-27.205 16.307-57.774 40.843-84.411 67.755l-26.891 27.167-5.769-13.044c-18.29-41.357-16.359-90.839 5.154-132.058 5.719-10.958 14.477-22.375 26.211-34.17 14.731-14.808 16.768-17.714 12.412-17.714-8.596 0-39.177 8.514-49.504 13.783l-9.647 4.921 1.607-14.495c2.484-22.399 5.647-33.461 15.513-54.246 16.225-34.181 51.3-64.214 88.596-75.86 12.49-3.9 12.557-3.968 5.779-5.882-3.771-1.065-18.429-1.936-32.572-1.936s-25.715-0.406-25.714-0.903c0-0.497 3.561-8.211 7.912-17.143 21.279-43.679 61.798-73.887 109.863-81.904l17.984-3-11.595-8.511c-16.086-11.808-47.197-28.034-69.023-36-31.633-11.545-61.307-16.591-99.18-16.866-38.203-0.277-37.884 0.425-7.389-16.264 37.225-20.372 91.558-38.41 133.714-44.391 9.429-1.338 19.714-2.81 22.857-3.271 15.171-2.227 77.061-1.003 99.366 1.966z" />
<glyph unicode="&#xe90a;" glyph-name="youtube-sq" d="M-128 448v640h1280v-1280h-1280v640zM701.714 41.242c62.954 2.937 80.063 5.292 97.425 13.414 35.657 16.679 51.411 47.297 58.323 113.344 4.685 44.775 4.030 196.216-1.023 236.142-6.562 51.854-19.569 80.989-43.461 97.344-15.65 10.714-27.74 14.692-52.785 17.368-85.025 9.086-411.602 9.064-496.68-0.033-61.007-6.523-86.052-36.488-95.968-114.817-5.036-39.786-5.683-191.319-1.007-236.005 8.45-80.751 30.401-111.010 87.774-120.992 19.321-3.361 97.341-7.487 170.83-9.034 56.719-1.194 223.052 0.772 276.571 3.268zM376.584 132.011c-14.151 8.774-14.233 9.461-14.956 125.703l-0.658 105.714h43.601v-94.67c0-52.069 0.624-96.297 1.387-98.286 0.873-2.276 4.154-3.616 8.852-3.616 5.913 0 9.425 2.128 16.898 10.235l9.434 10.235v176.102h43.429v-233.143h-43.429v25.567l-12-10.828c-6.6-5.955-15.31-12.222-19.355-13.926-10.025-4.223-25.611-3.795-33.203 0.913zM588.535 132.27c-5.048 2.293-13.020 7.792-17.714 12.22l-8.535 8.050v-22.254h-43.429v313.143h43.429v-100.791l8.571 8.419c17.099 16.795 38.646 21.558 53.376 11.798 17.855-11.831 22.586-36.367 22.586-117.14 0-60.141-2.671-87.587-9.752-100.22-9.225-16.457-29.346-21.94-48.532-13.224zM595.646 171.669c4.087 4.516 4.354 9.208 4.354 76.331s-0.268 71.816-4.354 76.332c-5.537 6.119-16.153 6.227-25.931 0.265l-7.429-4.529v-143.735l6.023-4.737c8.083-6.358 21.55-6.321 27.337 0.073zM719.985 130.136c-18.47 5.618-33.78 20.71-40.48 39.9-3.55 10.169-4.077 20.248-4.077 77.964 0 74.171 1.171 81.485 15.782 98.555 12.324 14.398 26.484 20.325 48.218 20.183 20.699-0.135 31.411-4.381 43.883-17.395 14.812-15.455 17.609-25.986 18.567-69.915l0.86-39.429h-85.564l0.924-29.657c1.033-33.169 4.31-41.628 16.69-43.093 17.188-2.034 24.069 6.642 24.069 30.351v14.971h43.429v-15.585c0-24.28-5.174-38.356-19.072-51.891-7.203-7.015-15.442-12.569-21.193-14.286-10.283-3.070-32.961-3.434-42.035-0.673zM758.421 290.286c1.355 28.49-3.901 38.857-19.698 38.857-11.402 0-16.222-3.826-18.794-14.918-2.497-10.769-2.897-36.209-0.606-38.5 0.885-0.885 9.885-1.313 20-0.952l18.391 0.656 0.707 14.857zM269.714 265.143v134.857h-50.286v43.429h148.571v-43.429h-52.571v-269.714h-45.714v134.857zM532.491 542.829c14.704 5.188 26.535 15.872 33.674 30.41l6.407 13.047 0.726 66.771c0.596 54.836 0.087 69.264-2.847 80.716-7.959 31.067-28.49 46.862-60.736 46.726-20.818-0.088-35.308-6.218-45.693-19.33-13.823-17.454-14.603-22.198-15.51-94.336-0.538-42.864 0.065-70.030 1.735-78.071 4.478-21.572 18.777-38.151 39.933-46.302 9.885-3.809 30.992-3.625 42.312 0.369zM498.985 583.799l-6.413 5.513-0.714 63.63c-0.773 68.873-0.175 76.455 6.556 83.186 5.872 5.872 19.016 5.872 24.888 0 6.731-6.731 7.329-14.313 6.556-83.186l-0.714-63.63-6.413-5.513c-3.527-3.032-8.87-5.513-11.873-5.513s-8.345 2.481-11.873 5.513zM654.882 542.72c4.333 1.81 12.986 8.070 19.229 13.909l11.351 10.617 1.395-24.389h43.428l1.184 236.572h-45.755v-181.964l-7.606-8.304c-8.567-9.353-18.103-12.861-23.28-8.564-2.911 2.416-3.399 16.879-3.399 100.827v98.006h-46.041l0.892-104.571c0.605-70.935 1.743-107.079 3.537-112.366 6.744-19.873 25.318-28.022 45.065-19.771zM397.714 605.234v63.52l28.204 90.195c15.512 49.607 28.953 92.509 29.868 95.337 1.657 5.12 1.554 5.143-23.178 5.143h-24.843l-15.882-60.456c-8.735-33.251-16.483-59.736-17.217-58.857s-3.462 9.827-6.063 19.884c-2.6 10.057-9.601 36.543-15.556 58.857l-10.829 40.571h-49.118l6.674-21.143c3.67-11.629 16.923-54.138 29.45-94.465l22.777-73.322v-128.784h45.714v63.52z" />
<glyph unicode="&#xe90b;" glyph-name="push7-sq" d="M-128 448v640h1280v-1280h-1280v640zM601.493 271.431c81.522 143.63 148.221 261.658 148.221 262.286s-65.334 1.141-145.186 1.141h-145.186l1.228 5.143c29.979 125.558 83.062 352.559 82.561 353.060-0.562 0.562-266.011-496.354-268.464-502.561-0.419-1.060 61.664-1.928 137.962-1.928h138.724l-1.551-6.286c-0.853-3.457-24.108-89.447-51.676-191.089s-50.094-185.985-50.056-187.429c0.038-1.444 1.224-0.568 2.636 1.946s69.266 122.087 150.788 265.717z" />
<glyph unicode="&#xe90c;" glyph-name="push7-square" d="M197.823-63.086c-56.353 1.747-66.17 3.641-96.514 18.619-20.449 10.095-33.14 19.807-51.33 39.284-19.278 20.643-30.488 39.412-39.281 65.771-6.446 19.324-6.95 23.217-8.725 67.417-2.497 62.189-2.436 594.39 0.074 647.141 2.251 47.299 5.116 59.549 21.362 91.34 8.131 15.911 13.887 23.467 30.771 40.392 24.015 24.074 41.973 35.552 71.876 45.943l20.66 7.179h364.273c348.036 0 364.854-0.18 377.321-4.016 36.459-11.222 60.253-25.751 84.659-51.694 20.284-21.561 31.54-40.2 40.501-67.060 6.501-19.489 6.954-23.048 8.717-68.505 2.417-62.328 2.417-577.255 0-639.583-1.763-45.456-2.216-49.015-8.717-68.505-8.809-26.407-20.010-45.167-39.297-65.819-18.178-19.465-30.289-28.742-51.071-39.12-28.595-14.279-40.902-16.838-91.335-18.991-53.415-2.279-559.085-2.115-633.943 0.205zM595.341 525.61c-72.709 0.309-132.197 1.3-132.197 2.205s17.127 73.968 38.059 162.364c20.932 88.395 37.704 161.074 37.27 161.508s-55.648-102.241-122.697-228.167l-121.908-228.956 125.958-0.561c71.599-0.317 125.958-1.396 125.958-2.494 0-1.063-21.041-79.47-46.757-174.237s-46.757-173.355-46.757-174.638c0-1.283 61.935 106.735 137.634 240.041l137.634 242.374-132.197 0.561z" />
<glyph unicode="&#xe90d;" glyph-name="feedly-square" d="M155.323-63.039c-37.805 5.157-77.156 25.563-105.007 54.453-24.025 24.921-37.736 49.636-47.865 86.284l-3.353 12.132v715.367l3.353 12.132c10.13 36.647 23.84 61.362 47.865 86.284 24.532 25.447 52.221 41.298 90.583 51.854l12.16 3.346h716.979l12.711-3.486c49.799-13.659 87.588-40.679 113.727-81.317 9.73-15.128 18.128-34.821 24.17-56.68l3.354-12.132v-715.367l-3.354-12.132c-10.589-38.308-26.535-66.027-51.971-90.336-6.1-5.83-13.808-12.657-17.128-15.171-17.606-13.334-41.86-24.9-68.019-32.435l-11.981-3.451-353.961-0.239c-194.679-0.132-357.697 0.273-362.263 0.895zM617.209 135.847c0 0.783 1.547 1.423 3.438 1.423s5.117 1.173 7.17 2.607c2.053 1.435 3.732 2.345 3.732 2.022 0-1.777 11.323 1.914 13.612 4.436 1.488 1.641 3.468 2.983 4.4 2.983 3.072 0 21.593 17.928 92.968 89.986 6.769 6.834 12.538 12.425 12.821 12.425s4.243 3.897 8.801 8.66c6.391 6.679 60.335 60.608 70.774 70.755 23.229 22.579 44.926 46.581 44.926 49.699 0 0.849 0.948 2.328 2.106 3.287s2.567 4.261 3.131 7.338c0.563 3.077 1.985 7.083 3.16 8.904s1.757 4.293 1.295 5.495c-0.462 1.202-0.115 2.633 0.772 3.18 2.902 1.79 1.876 24.91-1.406 31.69-1.604 3.313-2.939 6.975-2.968 8.137-0.145 6.001-9.822 21.464-20.315 32.464-6.289 6.593-11.435 12.523-11.435 13.178s-0.597 1.192-1.327 1.192c-1.796 0-30.371 28.422-30.371 30.209 0 0.78-0.599 1.418-1.332 1.418-1.826 0-34.122 32.101-33.713 33.509 0.18 0.621-0.28 1.129-1.024 1.129-1.838 0-22.799 20.817-22.799 22.642 0 0.8-0.577 1.455-1.283 1.455-1.342 0-51.547 49.537-51.547 50.861 0 0.417-2.506 2.868-5.57 5.446s-6.629 5.957-7.924 7.51c-4.284 5.134-18.938 18.998-20.090 19.007-0.623 0.004-1.132 0.735-1.132 1.622 0 2.085-3.84 5.917-5.93 5.917-0.889 0-1.617 1.017-1.617 2.259s-0.657 2.259-1.459 2.259c-1.513 0-12.126 10.024-12.126 11.453 0 1.438-4.262 5.113-5.93 5.113-0.89 0-1.617 0.604-1.617 1.342s-12.396 13.753-27.547 28.922c-15.151 15.169-27.377 28.12-27.17 28.779s-0.501 1.198-1.575 1.198c-1.074 0-5.059 3.219-8.857 7.154-12.061 12.496-23.576 20.351-34.634 23.628-4.276 1.267-8.696 3.066-9.821 3.998-2.496 2.067-27.274 3.36-28.436 1.484-0.457-0.738-2.12-1.005-3.694-0.595s-4.741-0.48-7.035-1.98c-2.295-1.5-5.93-2.958-8.079-3.239-10.879-1.424-24.63-12.661-61.514-50.264-6.778-6.911-19.344-19.489-27.925-27.952s-39.943-39.808-69.696-69.654c-29.753-29.847-54.715-54.267-55.472-54.267s-1.376-0.566-1.376-1.257c0-0.691-23.604-25.012-52.453-54.046-54.64-54.99-57.959-58.462-60.622-63.428-0.892-1.663-2.641-4.041-3.888-5.284s-2.505-3.499-2.798-5.012c-0.293-1.513-1.378-4.785-2.411-7.269-6.16-14.814-6.319-42.048-0.324-55.472 1.788-4.003 3.251-7.531 3.251-7.84 0-0.563 5.317-8.75 10.211-15.721 1.441-2.052 45.751-47.010 98.468-99.906s99.694-100.035 104.394-104.752c10.155-10.192 16.659-15.322 22.576-17.804 2.393-1.004 4.35-2.482 4.35-3.284 0-1.274 6.995-3.718 11.321-3.955 0.83-0.047 2.442-0.664 3.581-1.375 7.288-4.547 18.776-5.075 112.268-5.157 58.504-0.051 94.717 0.463 94.717 1.341zM501.36 215.732c-3.528 1.748-6.415 4.124-6.415 5.28s-0.728 2.102-1.617 2.102c-2.202 0-5.93 3.877-5.93 6.168 0 1.026-0.383 1.482-0.851 1.015-1.075-1.072-12.733 10.223-12.733 12.336 0 0.861-0.679 1.566-1.509 1.566s-1.509 2.314-1.509 5.141c0 4.583 2.201 7.357 20.277 25.549 11.412 11.486 21.97 20.832 24.151 21.378 7.562 1.894 11.865-0.946 32.077-21.171 25.831-25.848 25.668-24.543 5.625-45.067-15.849-16.23-17.254-16.927-34.804-17.271-7.794-0.153-11.927 0.581-16.76 2.976zM420.807 299.704c-5.194 0.924-11.564 5.919-22.188 17.396-2.228 2.407-6.598 6.928-9.711 10.048s-5.639 6.911-5.612 8.425c0.059 3.407 3.436 8.025 5.868 8.025 0.995 0 1.465 0.557 1.043 1.237-0.721 1.164 4.166 6.293 5.996 6.293 1.653 0 4.998 4.175 4.080 5.092-0.514 0.513 0.198 0.932 1.581 0.932s2.516 0.726 2.516 1.614c0 1.755 3.716 5.917 5.283 5.917 1.259 0 5.283 4.015 5.283 5.271 0 1.564 4.171 5.271 5.93 5.271 0.889 0 1.617 0.726 1.617 1.614 0 2.229 3.958 5.984 5.103 4.841 0.514-0.513 0.934 0.197 0.934 1.578s1.059 2.51 2.353 2.51c1.294 0 1.933 0.678 1.42 1.506s-0.165 1.506 0.773 1.506c1.829 0 6.019 3.67 6.019 5.271 0 1.668 4.225 5.271 6.181 5.271 1.028 0 1.414 0.453 0.859 1.007-1.152 1.149 3.278 6.523 5.376 6.523 1.501 0 6.451 4.527 6.451 5.9 0 1.766 9.123 10.667 10.933 10.667 1.043 0 1.897 0.684 1.897 1.52s2.038 3.647 4.528 6.248c2.491 2.6 4.528 5.305 4.528 6.010s0.858 1.283 1.906 1.283c1.048 0 3.171 1.681 4.718 3.737s3.423 3.36 4.169 2.9c0.746-0.46 1.17 0.061 0.942 1.158s0.434 1.825 1.472 1.618c1.038-0.207 1.887 0.349 1.887 1.237 0 2.085 3.84 5.917 5.93 5.917 0.889 0 1.617 0.783 1.617 1.741s2.664 4.346 5.919 7.53c4.489 4.391 7.133 5.784 10.943 5.768 4.449-0.017 7.499-2.505 26.659-21.73 19.965-20.034 21.602-22.095 21.213-26.711-0.461-5.471-3.665-10.273-6.855-10.273-1.117 0-1.86-0.822-1.653-1.827s-1.151-2.521-3.019-3.369c-1.868-0.848-3.396-2.23-3.396-3.072s-2.038-3.449-4.528-5.795c-2.491-2.345-4.528-4.885-4.528-5.643s-0.706-1.378-1.569-1.378c-1.713 0-16.43-15.111-16.501-16.943-0.026-0.621-0.79-1.129-1.702-1.129s-3.562-2.033-5.889-4.518c-2.327-2.485-4.976-4.518-5.889-4.518s-1.659-0.684-1.659-1.52c0-0.836-2.121-3.716-4.713-6.401s-5.709-6.379-6.927-8.211c-1.218-1.831-3.512-3.741-5.099-4.243s-2.884-1.723-2.884-2.713c0-0.99-1.817-3.147-4.037-4.793-5.097-3.778-9.547-8.465-9.547-10.054 0-0.672-1.019-1.222-2.264-1.222s-2.264-1.057-2.264-2.348c0-1.291-0.679-1.929-1.509-1.417s-1.509-0.198-1.509-1.578c0-1.603-0.811-2.198-2.246-1.649-1.235 0.473-2.11 0.376-1.943-0.215 0.467-1.66-3.497-8.216-4.414-7.3-0.868 0.866-4.981-2.699-4.981-4.317 0-0.532-0.96-1.926-2.132-3.096-2.412-2.407-23.872-3.975-32.76-2.393zM334.277 385.626c-0.561 0.905-2.338 1.645-3.949 1.645-1.728 0-2.93 1.029-2.93 2.51 0 1.381-0.454 2.057-1.010 1.503-1.356-1.353-6.685 3.567-5.658 5.225 0.445 0.718-0.251 1.305-1.545 1.305s-2.353 1.057-2.353 2.348c0 1.291-0.679 1.929-1.509 1.417s-1.509 0.125-1.509 1.417c0 1.291-0.849 2.178-1.887 1.971s-1.717 0.471-1.509 1.506c0.207 1.035-0.308 1.883-1.146 1.883s-3.555 1.937-6.038 4.305c-3.172 3.024-4.515 5.737-4.515 9.118 0 4.359 9.556 14.375 101.265 106.139 55.696 55.729 101.714 101.946 102.264 102.705s4.16 4.214 8.023 7.678c4.862 4.359 7.946 6.057 10.019 5.516 1.647-0.43 10.373-8.25 19.391-17.378s18.739-18.655 21.602-21.17c4.1-3.602 5.271-5.834 5.51-10.508l0.304-5.934-203.383-203.813-14.209-0.516c-9.182-0.333-14.569 0.066-15.228 1.13z" />
<glyph unicode="&#xe90e;" glyph-name="push7" d="M453.43 543.171l95.171 402.56-300.097-563.593h307.389l-117.094-431.868 336.697 592.901z" />
<glyph unicode="&#xe90f;" glyph-name="hatebu-square" d="M115.967-62.857c-53.635 13.051-97.048 56.371-110.661 110.426-3.475 13.797-3.861 61.801-3.252 404.354l0.69 388.698 6.734 17.308c18.269 46.958 47.148 75.775 94.369 94.169l16.995 6.62 383.817 0.742c269.351 0.52 388.794-0.097 400.505-2.069 24.19-4.074 55.796-20.186 75.062-38.266 17.939-16.834 30.11-35.384 40.152-61.196l6.734-17.308v-788.169l-5.935-17.176c-15.226-44.067-49.88-78.519-95.475-94.919l-16.688-6.002-388.952-0.449c-330.301-0.381-391.235 0.106-404.096 3.236zM742.345 225.483c31.754 14.422 44.965 51.654 29.244 82.418-21.537 42.145-83.588 41.906-105.355-0.406-20.133-39.135 8.852-86.77 52.798-86.77 7.060 0 17.551 2.141 23.314 4.758zM498.241 230.446c65.214 17.719 96.334 56.844 96.245 120.997-0.077 54.979-23.53 90.221-70.751 106.31-6.759 2.303-15.548 4.187-19.533 4.187-9.272 0-9.39 4.047-0.185 6.325 14.632 3.62 39.557 17.892 48.462 27.748 13.511 14.955 19.345 30.216 20.865 54.582 3.66 58.673-24.434 95.213-86.261 112.196-18.241 5.010-27.708 5.475-131.972 6.48l-112.321 1.082v-447.616l117.456 1.064c110.717 1.003 118.634 1.385 137.994 6.645zM358.060 304.343c-0.143 1.251-0.432 23.469-0.642 49.374l-0.381 47.1 42.361-0.888c39.084-0.819 43.354-1.385 55.198-7.306 9.826-4.913 14.191-9.105 18.613-17.873 14.037-27.835 2.458-56.933-26.211-65.867-14.499-4.519-88.507-8.296-88.937-4.539zM356.334 526.518l0.704 44.534 14.12 0.825c20.923 1.222 61.566-4.173 70.428-9.349 17.074-9.972 23.736-39.485 13.339-59.093-7.793-14.697-22.42-19.387-63.931-20.501l-35.363-0.949 0.704 44.534zM771.662 520.989v151.472h-105.261v-302.944h105.261v151.472z" />
<glyph unicode="&#xe910;" glyph-name="flickr-square" horiz-adv-x="665" d="M84 781h498c47 0 84-37 84-84v-498c0-25-10-44-25-59-14-14-36-25-59-25h-498c-47 0-84 37-84 84v498c0 23 11 45 25 59 15 15 34 25 59 25zM195 338c62 0 113 50 113 112s-51 113-113 113c-61 0-113-51-113-113s52-112 113-112zM471 338c61 0 113 50 113 112s-52 113-113 113c-62 0-114-51-114-113s52-112 114-112z" />
<glyph unicode="&#xe911;" glyph-name="hatena-square" horiz-adv-x="650" d="M293 405c8-6.001 12-16 12-31 0-13-4-22.001-14.001-28-9-6.001-25-9-48-9h-33v77h35c23 0 39-3 48-9zM277 484c-8-5-24-7-48-7h-19v70.001h21c23 0 39-3 47-8s13-15 13-28-5-22.001-14.001-27zM80 765.999h490.001c44 0 80-36 80-80v-490.001c0-44-36-80-80-80h-490.001c-44 0-80 36-80 80v490.001c0 44 36 80 80 80zM533 612h-85v-230.001h85v230.001zM384 317c8 14.001 12 30.001 12 49 0 26.001-7 47-21 63-14.001 15-34.001 24-58.001 26.001 22.001 6.001 38.001 15 48 26.001 10.001 12 15 28 15 48 0 15-3 29-10.001 41s-17 22.001-30.001 29c-11 6.001-24 11-40 13-16 3-43 4-83 4h-96v-350.001h99c40 0 69 1 86.001 4 18.001 3 32 7 44 14.001 15 8 26.001 19 34.001 33zM523.001 279c9 9 13 19 13 32 0 12-4 23-13 32-9 8-20 12-33 12s-24-4-32-13c-9-8-13-19-13-31 0-13 4-23 13-32s19-13 32-13 24 4 33 13z" />
<glyph unicode="&#xe912;" glyph-name="evernote" d="M887.758 739.431c0 58.88-88.679 65.433-88.679 65.433l-208.334 13.106c0 0-4.455 56.729-46.592 76.391-42.087 19.609-88.37 13.671-121.6 13.312s-41.163-42.802-41.163-82.841 0.768-86.119 0.768-115.2c0-52.018-22.887-74.19-80.178-74.19h-118.121c-33.024 2.151-58.777-3.275-58.777-30.002 0-26.674 38.912-254.567 92.263-307.15 30.976-30.514 220.366-51.918 260.249-51.918s26.624 117.81 37.682 117.81 23.296-66.56 86.119-82.126c62.823-15.666 146.688-12.75 151.143-57.447 5.785-58.983 11.058-135.321-27.751-140.75l-87.808-3.481c-60.21 4.352-44.082 70.094-17.511 70.094s39.886 1.074 39.886 1.074l3.328 71.986c0 0-137.881 16.281-143.769-76.75-5.326-84.992 9.266-125.081 19.968-133.785 10.752-8.8 29.287-25.799 198.144-25.799 237.927 0 150.734 693.401 150.734 752.231zM790.528 431.566c-9.319-9.934-43.111 16.434-75.367 16.434-32.306 0-67.175-17.102-75.367-5.888-8.142 11.264 7.527 101.991 68.352 101.991s91.751-102.553 82.382-112.537zM297.113 746.702c0 11.623 3.022 152.782 3.022 152.782l-179.509-176.078c0 0 124.007 0 148.327 0 24.423 0 28.16 11.621 28.16 23.296z" />
<glyph unicode="&#xe913;" glyph-name="feedly" d="M977.883 426.439l-425.664 425.634c-22.208 22.224-58.231 22.224-80.439 0l-425.657-425.634c-22.208-22.238-22.224-58.251 0-80.459l318.718-318.713h294.315l318.711 318.711c22.224 22.231 22.224 58.224 0.016 80.462zM269.625 337.365l-47.374 47.365c-3.296 3.305-3.296 8.656 0 11.954l281.026 281.040c3.319 3.305 8.672 3.305 11.984 0l63.248-63.285c3.289-3.305 3.289-8.642 0-11.947l-265.136-265.127h-43.749zM581.255 161.207l-47.387-47.365h-43.749l-47.374 47.365c-3.296 3.305-3.296 8.649 0 11.947l63.271 63.278c3.305 3.319 8.656 3.319 11.975 0l63.264-63.278c3.289-3.298 3.289-8.635 0-11.947zM581.936 384.025l-157.616-157.609h-43.749l-47.374 47.365c-3.296 3.296-3.296 8.649 0 11.947l173.513 173.52c3.305 3.312 8.656 3.312 11.968 0l63.264-63.278c3.285-3.289 3.285-8.633-0.007-11.945z" />
<glyph unicode="&#xe914;" glyph-name="pocket" d="M880.327 858.681h-742.21c-50.48 0-91.397-40.923-91.397-91.397v-251.127c0-2.018 0.094-3.872 0.217-5.643-0.137-4.379-0.217-8.839-0.217-13.413 0-255.433 207.072-462.498 462.507-462.498 252.674 0 457.888 202.651 462.297 454.279 0.13 1.698 0.21 3.493 0.21 5.504l-0.002 272.898c0 50.473-40.923 91.397-91.406 91.397zM767.527 511.995l-207.058-207.042c-13.995-14.002-33.001-19.849-51.243-17.648-18.229-2.201-37.248 3.646-51.243 17.641l-207.058 207.049c-24.199 24.199-24.199 63.422 0 87.607 24.199 24.199 63.431 24.199 87.614 0l170.688-170.681 170.681 170.681c24.206 24.199 63.431 24.199 87.621 0 24.192-24.176 24.192-63.415 0-87.607z" />
<glyph unicode="&#xe915;" glyph-name="line" d="M509.806 897.586c-254.706 0-461.193-168.974-461.193-377.429 0-187.175 166.535-342.443 384.937-372.192-0.050-0.030-0.146-0.080-0.146-0.080 0.974-0.11 1.888-0.21 2.839-0.32 2.398-0.32 4.793-0.617 7.198-0.887 23.966-3.305 35.346-9.086 34.969-35.2-0.427-29.536-11.984-51.367-18.839-65.493-6.848-14.126-21.41-71.92 44.519-35.957 50.75 27.671 300.009 149.561 412.098 331.595 29.673 45.15 48.331 95.829 53.321 149.641 0.16 1.655 0.327 3.312 0.464 4.96 0.19 2.585 0.384 5.177 0.517 7.785 0.304 5.353 0.501 10.713 0.501 16.13 0.002 208.464-206.482 377.445-461.184 377.445zM316.306 411.216h-87.831c-12.978 0-23.502 10.517-23.502 23.502l-0.007 178.146c0 12.985 10.523 23.502 23.502 23.502 12.985 0 23.502-10.517 23.502-23.502l0.007-154.631h64.331c12.992 0 23.502-10.523 23.502-23.502 0.005-12.985-10.51-23.515-23.504-23.515zM416.507 434.718c0-12.985-10.523-23.502-23.502-23.502s-23.502 10.517-23.502 23.502v178.146c0 12.985 10.523 23.502 23.502 23.502s23.502-10.517 23.502-23.502v-178.146zM631.061 418.101c-0.27-0.27-0.587-0.45-0.864-0.697-0.857-0.777-1.728-1.561-2.702-2.208-0.69-0.457-1.424-0.784-2.158-1.17-0.631-0.334-1.221-0.72-1.888-0.994-0.857-0.357-1.758-0.574-2.645-0.821-0.587-0.167-1.141-0.4-1.751-0.517-1.525-0.304-3.072-0.464-4.619-0.464h-0.007c-0.080 0-0.153 0.023-0.224 0.023-1.461 0.023-2.919 0.153-4.366 0.443-0.763 0.153-1.467 0.437-2.201 0.661-0.734 0.217-1.474 0.384-2.178 0.683-0.857 0.357-1.648 0.827-2.448 1.285-0.53 0.304-1.090 0.53-1.605 0.864-2.898 1.947-5.28 4.546-7.081 7.545l-91.227 120.505v-108.514c0-12.985-10.523-23.502-23.502-23.502s-23.502 10.517-23.502 23.502v178.139c0 0.407 0.101 0.777 0.123 1.184 0.050 1.141 0.123 2.265 0.341 3.392 0.167 0.871 0.48 1.691 0.747 2.528 0.197 0.624 0.327 1.248 0.581 1.858 0.4 0.967 0.923 1.851 1.445 2.745 0.254 0.437 0.443 0.887 0.711 1.307 1.735 2.592 3.959 4.83 6.558 6.558 0.45 0.304 0.944 0.501 1.417 0.763 0.857 0.487 1.698 0.994 2.622 1.374 0.683 0.283 1.387 0.437 2.098 0.661 0.747 0.224 1.497 0.523 2.281 0.683 1.365 0.27 2.752 0.393 4.146 0.414 0.153 0.007 0.297 0.043 0.443 0.043 0.080 0 0.16-0.023 0.247-0.023 1.467-0.014 2.919-0.153 4.366-0.437 0.704-0.146 1.365-0.414 2.055-0.61 0.777-0.233 1.575-0.421 2.331-0.727 0.791-0.327 1.525-0.777 2.265-1.191 0.597-0.327 1.205-0.597 1.778-0.967 1.294-0.857 2.491-1.838 3.579-2.935 0.007 0 0.007 0 0.007 0v0c1.351-1.358 2.469-2.926 3.465-4.576l91.237-120.535 0.005 108.489c0 12.985 10.523 23.502 23.502 23.502 12.985 0 23.502-10.517 23.502-23.502v-178.066c0.007-1.584-0.153-3.159-0.464-4.706-0.101-0.523-0.313-0.994-0.45-1.497-0.27-0.981-0.507-1.954-0.894-2.891-0.261-0.631-0.631-1.184-0.937-1.794-0.4-0.747-0.747-1.525-1.227-2.245-0.624-0.937-1.374-1.778-2.121-2.608-0.283-0.315-0.501-0.658-0.791-0.955zM785.154 547.298c12.992 0 23.509-10.53 23.509-23.502s-10.517-23.502-23.509-23.502h-64.331v-42.057h64.331c12.992 0 23.509-10.523 23.509-23.502s-10.517-23.502-23.509-23.502l-87.833-0.005c-12.978 0-23.509 10.517-23.509 23.502l-0.007 178.133c0 12.985 10.53 23.502 23.509 23.502h87.831c12.992 0 23.509-10.523 23.509-23.502s-10.517-23.502-23.509-23.502h-64.331v-42.057h64.341z" />
<glyph unicode="&#xe916;" glyph-name="hatena" d="M763.707 180.846c0 0 0 0 0 0 0-55.78 45.219-100.999 100.999-100.999s100.999 45.219 100.999 100.999c0 0 0 0 0 0s0 0 0 0c0 55.78-45.219 100.999-100.999 100.999s-100.999-45.219-100.999-100.999c0 0 0 0 0 0zM772.736 840.665h183.934v-502.363h-183.934zM492.965 502.693c0 0 127.093 8.011 127.093 160.325 0 176.361-159.157 177.246-250.009 177.246-58.935 0-88.704 0-127.819 0l-183.941 0.009v-760.818h183.943c32.601 0 73.481 0 125.145 0 251.177 0 293.938 137.326 293.938 225.504s-42.761 171.010-168.35 197.735zM252.121 696.969c70.105 0 66.953 0 85.509 0 16.034 0 85.509-6.834 85.509-72.974 0-78.158-60.126-75.493-100.199-75.493-40.082 0-20.043 0-70.809 0l-0.009 148.466zM352.322 241.218c-46.77 0-65.47 0-100.206 0l-0.002 166.999c0 0 44.089 0 102.21 0 58.114 0 102.203-12.018 102.203-83.504s-57.445-83.495-104.206-83.495z" />
<glyph unicode="&#xe917;" glyph-name="line-square" d="M142.929-60.743c-65.42 16.201-119.748 69.814-136.184 134.391-5.367 21.087-6.201 70.66-6.201 368.394 0 216.908 1.507 352.159 4.079 366.031 13.458 72.607 73.174 135.415 142.962 150.366 14.573 3.122 127.936 4.517 363.614 4.476 376.56-0.067 370.319 0.309 416.881-25.082 25.794-14.066 56.387-44.878 72.454-72.973 23.18-40.532 22.924-35.935 22.924-411.156 0-216.908-1.507-352.158-4.078-366.031-13.458-72.607-73.174-135.415-142.962-150.366-14.64-3.136-127.468-4.431-365.611-4.195-282.993 0.282-348.618 1.376-367.876 6.145zM531.080 97.949c96.119 49.783 236.302 159.387 288.082 225.241 49.077 62.416 66.579 112.581 63.453 181.866-3.118 69.090-25.869 120.574-76.926 174.081-149.945 157.14-434.698 157.97-585.378 1.706-51.311-53.213-74.943-105.424-78.838-174.181-6.412-113.198 59.17-214.209 177.747-273.77 33.298-16.726 51.149-22.309 136.84-42.796 30.157-7.21 31.716-11.547 25.998-72.337l-3.172-33.727h12.662c6.964 0 24.754 6.263 39.533 13.918zM276.391 402.635c-2.436 4.658-4.136 39.94-4.136 85.85 0 72.492 0.559 78.515 7.992 86.119 9.62 9.842 11.657 10.002 23.085 1.812 8.583-6.151 8.881-8.687 8.881-75.63v-69.266h31.167c32.884 0 40.757-3.554 40.757-18.397 0-16.044-7.236-18.397-56.599-18.397-42.387 0-47.416 0.777-51.146 7.907zM408.91 399.633c-3.414 3.493-4.795 28.778-4.795 87.8v82.894l9.721 6.517c11.871 7.958 24.92 2.522 28.446-11.851 1.265-5.156 1.736-43.806 1.046-85.888-1.025-62.58-2.345-77.218-7.247-80.383-8.331-5.379-21.453-4.939-27.171 0.911zM476.837 399.633c-3.414 3.493-4.795 28.778-4.795 87.8v82.894l9.775 6.553c6.084 4.079 12.013 5.271 15.704 3.158 3.261-1.867 23.586-27.309 45.167-56.538l39.238-53.143 1.077 51.101c0.888 42.132 2.249 51.998 7.756 56.211 8.898 6.808 15.267 6.441 22.847-1.314 8.962-9.169 9.42-169.785 0.505-177.354-13.226-11.23-23.642-2.983-61.721 48.871-20.64 28.106-39.070 51.715-40.957 52.464s-3.43-20.498-3.43-47.218c0-51.010-2.273-58.392-17.981-58.392-4.615 0-10.549 2.208-13.186 4.906zM652.65 399.633c-3.414 3.492-4.795 28.747-4.795 87.663 0 100.27-2.803 95.485 55.941 95.485 40.861 0 55.941-5.494 55.941-20.38 0-15.265-10.788-20.501-42.241-20.501h-29.683v-36.793h31.167c31.989 0 40.757-3.631 40.757-16.878 0-14.667-11.131-19.915-42.241-19.915h-29.683v-36.793h31.167c32.884 0 40.757-3.554 40.757-18.397 0-4.722-2.158-10.793-4.795-13.491-6.612-6.765-95.679-6.765-102.291 0z" />
<glyph unicode="&#xe919;" glyph-name="facebook" d="M575.87-64h-191.87v512h-128v176.45l128 0.058-0.208 103.952c0 143.952 39.034 231.54 208.598 231.54h141.176v-176.484h-88.23c-66.032 0-69.206-24.656-69.206-70.684l-0.262-88.324h158.69l-18.704-176.45-139.854-0.058-0.13-512z" />
<glyph unicode="&#xe91a;" glyph-name="facebook-square" d="M853.344 960h-682.66c-93.872 0-170.684-76.814-170.684-170.688v-682.626c0-93.938 76.812-170.686 170.684-170.686l682.66 0.002c93.876 0 170.656 76.746 170.656 170.688v682.622c0 93.874-76.782 170.688-170.656 170.688zM870.592 448h-166.592v-448h-192v448h-92.526v146.564h92.526v95.186c0 129.342 55.792 206.25 207.87 206.25h175.244v-158.57h-143.13c-42.482 0.070-47.752-22.152-47.752-63.512l-0.232-79.354h192l-25.408-146.564z" />
<glyph unicode="&#xe91b;" glyph-name="instagram" d="M854 960h-684c-93.5 0-170-76.5-170-170v-684c0-93.5 76.5-170 170-170h684c93.5 0 170 76.5 170 170v684c0 93.5-76.5 170-170 170zM327.8 512h368.4c6.988-20.058 10.8-41.59 10.8-64 0-107.524-87.476-195-195-195s-195 87.476-195 195c0 22.41 3.812 43.942 10.8 64zM896 511.95v-383.95c0-35.2-28.8-64-64-64h-640c-35.2 0-64 28.8-64 64v384h100.108c-4.642-20.602-7.108-42.016-7.108-64 0-160.458 130.542-291 291-291s291 130.542 291 291c0 21.984-2.464 43.398-7.108 64l100.108-0.050zM896 736c0-17.6-14.4-32-32-32h-64c-17.6 0-32 14.4-32 32v64c0 17.6 14.4 32 32 32h64c17.6 0 32-14.4 32-32v-64z" />
<glyph unicode="&#xe91c;" glyph-name="twitter" d="M1024 765.582c-37.676-16.708-78.164-28.002-120.66-33.080 43.372 26 76.686 67.17 92.372 116.23-40.596-24.078-85.556-41.56-133.41-50.98-38.32 40.83-92.922 66.34-153.346 66.34-116.022 0-210.088-94.058-210.088-210.078 0-16.466 1.858-32.5 5.44-47.878-174.6 8.764-329.402 92.4-433.018 219.506-18.084-31.028-28.446-67.116-28.446-105.618 0-72.888 37.088-137.192 93.46-174.866-34.438 1.092-66.832 10.542-95.154 26.278-0.020-0.876-0.020-1.756-0.020-2.642 0-101.788 72.418-186.696 168.522-206-17.626-4.8-36.188-7.372-55.348-7.372-13.538 0-26.698 1.32-39.528 3.772 26.736-83.46 104.32-144.206 196.252-145.896-71.9-56.35-162.486-89.934-260.916-89.934-16.958 0-33.68 0.994-50.116 2.94 92.972-59.61 203.402-94.394 322.042-94.394 386.422 0 597.736 320.124 597.736 597.744 0 9.108-0.206 18.168-0.61 27.18 41.056 29.62 76.672 66.62 104.836 108.748z" />
<glyph unicode="&#xe91d;" glyph-name="twitter-square" d="M853.342 960h-682.656c-93.874 0-170.686-76.81-170.686-170.69v-682.622c0-93.938 76.812-170.688 170.686-170.688h682.656c93.876 0 170.658 76.75 170.658 170.69v682.62c0 93.88-76.782 170.69-170.658 170.69zM838.052 618.166c0.328-7.342 0.49-14.728 0.49-22.148 0-226.214-169.216-487.068-478.658-487.068-95.004 0-183.434 28.348-257.886 76.918 13.16-1.588 26.552-2.394 40.13-2.394 78.822 0 151.358 27.37 208.934 73.282-73.616 1.38-135.744 50.876-157.154 118.882 10.274-2 20.812-3.074 31.652-3.074 15.344 0 30.206 2.096 44.32 6.008-76.96 15.732-134.95 84.916-134.95 167.856 0 0.722 0 1.438 0.016 2.152 22.68-12.82 48.624-20.52 76.2-21.41-45.142 30.698-74.842 83.092-74.842 142.488 0 31.37 8.294 60.778 22.778 86.058 82.974-103.57 206.936-171.72 346.754-178.862-2.87 12.532-4.358 25.596-4.358 39.014 0 94.538 75.326 171.18 168.23 171.18 48.39 0 92.118-20.786 122.802-54.058 38.32 7.676 74.324 21.92 106.832 41.542-12.562-39.976-39.234-73.522-73.966-94.71 34.026 4.138 66.452 13.34 96.62 26.954-22.546-34.324-51.070-64.476-83.944-88.61z" />
<glyph unicode="&#xe91e;" glyph-name="feed" d="M136.294 209.070c-75.196 0-136.292-61.334-136.292-136.076 0-75.154 61.1-135.802 136.292-135.802 75.466 0 136.494 60.648 136.494 135.802-0.002 74.742-61.024 136.076-136.494 136.076zM0.156 612.070v-196.258c127.784 0 247.958-49.972 338.458-140.512 90.384-90.318 140.282-211.036 140.282-339.3h197.122c-0.002 372.82-303.282 676.070-675.862 676.070zM0.388 960v-196.356c455.782 0 826.756-371.334 826.756-827.644h196.856c0 564.47-459.254 1024-1023.612 1024z" />
<glyph unicode="&#xe91f;" glyph-name="youtube" d="M832 832h-640c-105.6 0-192-86.4-192-192v-384c0-105.6 86.4-192 192-192h640c105.6 0 192 86.4 192 192v384c0 105.6-86.4 192-192 192zM384 192v512l320-256-320-256z" />
<glyph unicode="&#xe920;" glyph-name="flickr2" d="M800 544c-70.58 0-128-57.42-128-128s57.42-128 128-128c70.58 0 128 57.42 128 128s-57.42 128-128 128zM800 640v0c123.71 0 224-100.288 224-224 0-123.71-100.29-224-224-224s-224 100.29-224 224c0 123.712 100.29 224 224 224zM0 416c0 123.712 100.288 224 224 224s224-100.288 224-224c0-123.712-100.288-224-224-224s-224 100.288-224 224z" />
<glyph unicode="&#xe921;" glyph-name="githubmark" d="M512 960c-282.77 0-512-229.23-512-512s229.23-512 512-512 512 229.23 512 512-229.23 512-512 512zM816.056 143.944c-39.518-39.516-85.512-70.532-136.708-92.186-13.006-5.5-26.214-10.328-39.6-14.492v76.734c0 40.334-13.834 70-41.5 89 17.334 1.666 33.25 4 47.75 7s29.834 7.334 46 13 30.666 12.416 43.5 20.25 25.166 18 37 30.5 21.75 26.666 29.75 42.5 14.334 34.834 19 57 7 46.584 7 73.25c0 51.666-16.834 95.666-50.5 132 15.334 40 13.666 83.5-5 130.5l-12.5 1.5c-8.666 1-24.25-2.666-46.75-11s-47.75-22-75.75-41c-39.666 11-80.834 16.5-123.5 16.5-43 0-84-5.5-123-16.5-17.666 12-34.416 21.916-50.25 29.75s-28.5 13.166-38 16-18.334 4.584-26.5 5.25-13.416 0.834-15.75 0.5-4-0.666-5-1c-18.666-47.334-20.334-90.834-5-130.5-33.666-36.334-50.5-80.334-50.5-132 0-26.666 2.334-51.084 7-73.25s11-41.166 19-57 17.916-30 29.75-42.5 24.166-22.666 37-30.5 27.334-14.584 43.5-20.25 31.5-10 46-13 30.416-5.334 47.75-7c-27.334-18.666-41-48.334-41-89v-78.23c-15.098 4.494-29.98 9.804-44.6 15.988-51.194 21.654-97.188 52.67-136.706 92.186-39.516 39.518-70.534 85.512-92.186 136.708-22.398 52.958-33.756 109.262-33.756 167.348s11.358 114.39 33.758 167.35c21.654 51.194 52.67 97.188 92.186 136.706s85.512 70.534 136.706 92.186c52.96 22.4 109.264 33.758 167.35 33.758s114.39-11.358 167.35-33.758c51.196-21.654 97.19-52.67 136.708-92.186 39.516-39.516 70.532-85.512 92.186-136.706 22.398-52.96 33.756-109.264 33.756-167.35s-11.358-114.39-33.758-167.35c-21.654-51.194-52.67-97.19-92.186-136.706z" />
<glyph unicode="&#xe922;" glyph-name="github" d="M235.278 711.28c-50.792 0-94.484-16.806-131.084-50.416-38.086-35.852-57.14-80.66-57.14-134.436 0-35.852 10.376-69.462 31.294-100.832 18.674-29.126 38.18-47.806 63.778-56.024v-2.242c-25.598-10.448-36.966-36.59-36.966-78.418 0-32.124 11.372-56.022 36.966-71.708v-2.242c-70.654-23.146-102.992-66.094-102.992-128.83 0-54.534 23.748-94.488 70.066-119.878 36.59-20.172 83.578-30.254 140.346-30.254 138.17 0 207.406 57.882 207.406 173.664 0 72.446-53.322 116.882-160.128 133.316-24.646 3.726-43.286 12.696-55.982 26.89-9.708 9.708-14.542 19.418-14.542 29.126 0 27.632 14.958 43.696 44.82 48.176 45.558 6.714 82.728 27.824 111.486 63.296 28.75 35.48 43.13 77.118 43.13 124.916 0 14.938-4.518 30.996-10.488 48.172 19.418 4.488 33.050 8.594 43.292 12.332v115.392c-45.054-17.928-86.99-26.884-122.842-26.884-31.374 17.922-63.824 26.884-100.42 26.884zM247.602 152.23c62.744 0 94.104-19.042 94.104-57.14 0-40.336-28.754-60.492-86.264-60.492-65.724 0-98.586 19.422-98.586 58.254-0.002 39.59 30.244 59.378 90.746 59.378zM239.76 448c-47.054 0-70.586 25.764-70.586 77.308 0 55.262 23.532 82.906 70.586 82.906 22.402 0 39.958-8.596 52.652-25.768 10.458-15.69 15.69-34.36 15.69-56.022 0-52.278-22.786-78.424-68.342-78.424zM580.384 960c-21.656 0-40.14-8.214-55.454-24.648-15.314-16.436-22.97-36.216-22.97-59.376 0-22.41 7.658-41.82 22.97-58.258 15.308-16.434 33.792-24.64 55.454-24.64 20.91 0 39.028 8.208 54.34 24.64 15.312 16.438 22.96 35.848 22.96 58.258 0 23.16-7.648 42.944-22.96 59.376-15.318 16.434-33.43 24.648-54.34 24.648zM643.13 704.002h-126.606c1.496-14.336-0.64-36.042-0.64-71.14v-348.432c0-35.856 2.136-64.774 0.64-76.036h126.606c-1.5 16.376-5.394 44.668-5.394 82.758v343.946c-0.006 32.864 3.894 54.568 5.394 68.904zM922.336 315.8c-32.872 0-49.082 25.028-49.082 75.066v206.64h49.864c8.96 0 17.032 0.492 27.118-0.246 10.086-0.748 14.152-0.25 19.278-0.25v106.99h-96.258v47.616c0 17.922 2.816 34.302 5.054 44.542h-129.958c2.242-10.24 2.028-25.876 2.028-46.79v-45.368h-56.32v-106.988c15.364 2.24 29.090 3.356 38.796 3.356l17.524-1.118v-202.786c0-62.742 7.958-108.672 23.636-137.8 20.922-38.84 57.622-58.258 112.136-58.258 38.848 0 73.118 7.464 98.714 22.41v112.032c-20.474-12.7-39.382-19.048-62.53-19.048z" />
<glyph unicode="&#xe923;" glyph-name="wordpress" d="M128 448.008c0-148.026 88.322-275.968 216.43-336.578l-183.178 488.784c-21.308-46.508-33.252-97.982-33.252-152.206zM771.228 466.872c0 46.234-17.054 78.236-31.654 103.142-19.458 30.82-37.72 56.894-37.72 87.716 0 34.374 26.766 66.376 64.486 66.376 1.704 0 3.32-0.204 4.976-0.302-68.316 60.97-159.34 98.196-259.308 98.196-134.16 0-252.186-67.046-320.844-168.568 9.010-0.282 17.506-0.454 24.712-0.454 40.154 0 102.34 4.752 102.34 4.752 20.69 1.182 23.132-28.434 2.458-30.822 0 0-20.81-2.368-43.952-3.55l139.834-405.106 84.044 245.456-59.822 159.65c-20.688 1.184-40.278 3.55-40.278 3.55-20.702 1.192-18.272 32.002 2.438 30.822 0 0 63.4-4.752 101.134-4.752 40.146 0 102.35 4.752 102.35 4.752 20.702 1.182 23.14-28.434 2.446-30.822 0 0-20.834-2.372-43.948-3.55l138.78-402.018 38.312 124.632c16.58 51.75 29.216 88.9 29.216 120.9zM518.742 415.296l-115.226-326.058c34.416-9.858 70.794-15.238 108.488-15.238 44.716 0 87.604 7.518 127.518 21.2-1.018 1.602-1.974 3.304-2.75 5.154l-118.030 314.942zM848.962 627.428c1.652-11.91 2.588-24.686 2.588-38.458 0-37.93-7.292-80.596-29.202-133.95l-117.286-330.272c114.162 64.828 190.938 185.288 190.938 323.258 0 65.030-17.060 126.16-47.038 179.422zM512 960c-282.77 0-512-229.23-512-512s229.23-512 512-512 512 229.23 512 512-229.23 512-512 512zM512 0c-247.424 0-448 200.576-448 448s200.576 448 448 448 448-200.576 448-448-200.576-448-448-448z" />
<glyph unicode="&#xe924;" glyph-name="tumblr" d="M576.032 512l-0.002-234.184c0-59.418-0.77-93.656 5.53-110.5 6.25-16.754 21.918-34.146 38.99-44.202 22.684-13.588 48.542-20.376 77.708-20.376 51.854 0 82.478 6.848 133.742 40.54v-153.944c-43.7-20.552-81.866-32.594-117.324-40.922-35.5-8.242-73.86-12.406-115.064-12.406-46.828 0-74.456 5.886-110.41 17.656-35.958 11.868-66.66 28.806-92.020 50.54-25.45 21.922-43.022 45.208-52.848 69.832-9.826 24.636-14.716 60.414-14.716 107.244v359.1h-137.426v145.006c40.208 13.042 85.164 31.788 113.78 56.152 28.754 24.45 51.766 53.706 69.106 87.944 17.392 34.146 29.348 77.712 35.872 130.516h165.084l-0.002-255.996h255.968v-192h-255.968z" />
<glyph unicode="&#xe925;" glyph-name="yahoo" d="M848 320l-14.858 416.020c-0.628 17.59 13.258 31.98 30.858 31.98h128c17.6 0 29.468-14.176 26.376-31.502l-74.376-416.498M960 184c0-30.8-25.2-56-56-56h-16c-30.8 0-56 25.2-56 56v16c0 30.8 25.2 56 56 56h16c30.8 0 56-25.2 56-56v-16zM384 768c-212.078 0-384-143.268-384-320 0-176.73 171.922-320 384-320s384 143.27 384 320c0 176.732-171.922 320-384 320zM640 512h-74.262l-117.738-117.74v-74.26h96v-64h-256v64h96v74.26l-181.74 181.74h-42.062v64h191.606v-64h-42.064l106.26-106.26 32 32v74.26h192v-64z" />
<glyph unicode="&#xe926;" glyph-name="apple" d="M791.498 415.908c-1.294 129.682 105.758 191.876 110.542 194.966-60.152 88.020-153.85 100.078-187.242 101.472-79.742 8.074-155.596-46.948-196.066-46.948-40.368 0-102.818 45.754-168.952 44.552-86.916-1.292-167.058-50.538-211.812-128.38-90.304-156.698-23.126-388.84 64.89-515.926 43.008-62.204 94.292-132.076 161.626-129.58 64.842 2.588 89.362 41.958 167.756 41.958s100.428-41.958 169.050-40.67c69.774 1.296 113.982 63.398 156.692 125.796 49.39 72.168 69.726 142.038 70.924 145.626-1.548 0.706-136.060 52.236-137.408 207.134zM662.562 796.478c35.738 43.358 59.86 103.512 53.28 163.522-51.478-2.096-113.878-34.29-150.81-77.55-33.142-38.376-62.148-99.626-54.374-158.436 57.466-4.484 116.128 29.204 151.904 72.464z" />
<glyph unicode="&#xe927;" glyph-name="android" d="M864 640c-35.2 0-64-28.8-64-64v-256c0-35.2 28.8-64 64-64s64 28.8 64 64v256c0 35.2-28.8 64-64 64zM96 640c-35.2 0-64-28.8-64-64v-256c0-35.2 28.8-64 64-64s64 28.8 64 64v256c0 35.2-28.802 64-64 64zM192 224c0-53.020 42.98-96 96-96h32v-128c0-35.2 28.8-64 64-64s64 28.8 64 64v128h64v-128c0-35.2 28.802-64 64-64s64 28.8 64 64v128h32c53.020 0 96 42.98 96 96v352h-576v-352zM598.598 870.506l40.504 77.806c2.032 3.902 0.5 8.758-3.402 10.79s-8.758 0.5-10.79-3.402l-41.118-78.986c-32.198 12.448-67.194 19.286-103.792 19.286-36.596 0-71.592-6.838-103.796-19.286l-41.116 78.984c-2.032 3.902-6.886 5.434-10.79 3.402s-5.434-6.886-3.402-10.79l40.5-77.808c-90.63-41.018-156.24-127.584-167.62-230.504h572.44c-11.376 102.924-76.986 189.488-167.618 230.508zM352 689.6c-25.626 0-46.4 20.774-46.4 46.4s20.774 46.4 46.4 46.4 46.4-20.774 46.4-46.4c-0.002-25.626-20.774-46.4-46.4-46.4zM608 689.6c-25.626 0-46.402 20.774-46.402 46.4s20.778 46.4 46.402 46.4 46.398-20.774 46.398-46.4c0-25.626-20.772-46.4-46.398-46.4z" />
<glyph unicode="&#xe928;" glyph-name="windows" d="M412.23 448.086c-47.708 24.518-94.086 36.958-137.88 36.958-5.956 0-11.952-0.18-17.948-0.708-55.88-4.624-106.922-19.368-139.75-30.828-8.708-3.198-17.634-6.576-26.83-10.306l-89.822-311.394c61.702 22.832 116.292 33.938 166.27 33.938 80.846 0 139.528-30.208 187.992-61.304 22.962 77.918 78.044 266.090 94.482 322.324-11.95 7.284-24.076 14.57-36.514 21.32zM528.348 368.93l-90.446-314.148c26.832-15.372 117.098-64.050 186.212-64.050 55.792 0 118.252 14.296 190.834 43.792l86.356 301.976c-58.632-18.922-114.876-28.52-167.464-28.52-95.95 0-163.114 31.098-205.492 60.95zM292.822 591.21c77.118-0.798 134.152-30.208 181.416-60.502l92.752 317.344c-19.546 11.196-70.806 39.094-107.858 48.6-24.386 5.684-50.020 8.616-77.204 8.616-51.796-0.976-108.388-13.946-172.888-39.8l-88.44-310.596c64.808 24.436 120.644 36.34 172.086 36.34 0.046-0.002 0.136-0.002 0.136-0.002zM1024 761.876c-58.814-22.832-116.208-34.466-171.028-34.466-91.686 0-159.292 31.802-203.094 62.366l-91.95-318.236c61.746-39.708 128.29-59.878 198.122-59.878 56.948 0 115.94 13.68 175.462 40.688l-0.182 2.222 3.734 0.886 88.936 306.418z" />
<glyph unicode="&#xe929;" glyph-name="windows8" d="M0.35 448l-0.35 312.074 384 52.144v-364.218zM448 821.518l511.872 74.482v-448h-511.872zM959.998 384l-0.126-448-511.872 72.016v375.984zM384 16.164l-383.688 52.594-0.020 315.242h383.708z" />
<glyph unicode="&#xe92a;" glyph-name="skype" d="M975.31 382.062c2.812 20.8 4.43 41.946 4.43 63.472 0 258.31-210.542 467.744-470.206 467.744-25.808 0-51.11-2.12-75.732-6.16-44.144 28.768-96.684 45.534-153.224 45.534-155.046 0-280.578-125.616-280.578-280.612 0-56.396 16.598-108.788 45.18-152.778-3.85-24.034-5.818-48.646-5.818-73.718 0-258.352 210.434-467.764 470.17-467.764 29.314 0 57.854 2.854 85.592 7.866 43.1-26.738 93.868-42.296 148.292-42.296 155.004-0.002 280.584 125.646 280.584 280.626-0.006 58.586-17.92 113.056-48.69 158.086zM553.48 100.808c-149.41-7.784-219.328 25.274-283.378 85.382-71.53 67.134-42.796 143.708 15.48 147.602 58.244 3.888 93.214-66.026 124.3-85.472 31.048-19.376 149.188-63.52 211.588 7.816 67.952 77.656-45.188 117.84-128.118 130.004-118.406 17.532-267.9 81.584-256.27 207.814 11.632 126.148 107.164 190.828 207.7 199.952 128.154 11.634 211.582-19.414 277.57-75.72 76.3-65.058 35.016-137.788-13.598-143.64-48.424-5.818-102.808 107.008-209.582 108.704-110.054 1.728-184.434-114.522-48.572-147.568 135.932-33.010 281.5-46.572 333.922-170.834 52.458-124.274-81.508-256.25-231.042-264.040z" />
<glyph unicode="&#xe92b;" glyph-name="delicious" d="M853.376 960h-682.69c-93.876 0-170.686-76.816-170.686-170.692v-682.624c0-93.93 76.81-170.684 170.686-170.684h682.69c93.874 0 170.624 76.752 170.624 170.684v682.624c0 93.876-76.75 170.692-170.624 170.692zM960 106.684c0-28.334-11.14-55.082-31.37-75.316-20.222-20.228-46.948-31.368-75.254-31.368h-341.376v448h-448v341.308c0 28.308 11.15 55.050 31.396 75.296 20.244 20.246 46.984 31.396 75.29 31.396h341.314v-448h448v-341.316z" />
<glyph unicode="&#xe92c;" glyph-name="pinterest" d="M512 960c-282.77 0-512-229.23-512-512s229.226-512 512-512c282.77 0 512 229.23 512 512s-229.23 512-512 512zM561.644 275.882c-46.52 3.614-66.042 26.656-102.504 48.808-20.060-105.176-44.564-206.016-117.14-258.686-22.404 158.968 32.894 278.364 58.57 405.114-43.784 73.706 5.27 222.034 97.62 185.474 113.626-44.948-98.4-274.008 43.932-302.616 148.62-29.868 209.288 257.858 117.142 351.424-133.158 135.106-387.598 3.080-356.31-190.356 7.614-47.292 56.472-61.638 19.524-126.902-85.22 18.892-110.65 86.102-107.376 175.712 5.268 146.674 131.784 249.364 258.686 263.566 160.484 17.964 311.106-58.908 331.906-209.876 23.412-170.39-72.448-354.93-244.050-341.662z" />
<glyph unicode="&#xe92d;" glyph-name="facebook-logo" d="M705.441 25.802v358.384h120.295l18.010 139.671h-138.305v89.174c0 40.438 11.228 67.994 69.219 67.994l73.962 0.035v124.92c-12.799 1.699-56.697 5.503-107.774 5.503-106.636 0-179.642-65.088-179.642-184.624v-103.002h-120.604v-139.671h120.604v-358.384h144.235z" />
<glyph unicode="&#xe92e;" glyph-name="feedly-logo" d="M532.433 261.308l42.53-42.459c4.709-4.686 4.709-12.288 0-16.974l-31.543-31.238c-2.047-2.061-4.014-2.118-5.234-2.118h-27.823c-1.089 0-3.114 0.028-5.146 2.045l-31.968 31.669c-4.701 4.686-4.701 12.289 0 16.975l42.18 42.1c4.699 4.686 12.318 4.686 17.004 0zM532.79 435.725l42.538-42.459c4.701-4.686 4.701-12.288 0-16.974l-119.083-118.814c-2.070-2.070-4.029-2.128-5.257-2.128h-27.8c-1.112 0-3.129 0.030-5.154 2.055l-31.96 31.858c-4.701 4.686-4.701 12.29 0 16.974l129.713 129.489c4.701 4.686 12.303 4.686 17.004 0zM532.79 609.783l42.538-42.459c4.701-4.686 4.701-12.288 0-16.974l-206.281-206.042c-2.047-2.060-4.014-2.128-5.242-2.128h-27.815c-1.089 0-3.114 0.030-5.147 2.055l-31.967 32.056c-4.701 4.686-4.701 12.288 0 16.974l216.911 216.518c4.701 4.686 12.303 4.686 17.004 0zM585.958 732.896c-34.058 33.993-89.281 33.993-123.339 0l-287.077-286.572c-34.059-33.985-34.059-89.112 0-123.113l206.977-207.101c8.685-8.663 30.126-19.461 45.908-19.461h190.318c11.871 0 36.858 9.028 48.014 20.171l206.276 206.392c34.058 34 34.058 89.127 0 123.113l-287.077 286.572z" />
<glyph unicode="&#xe92f;" glyph-name="flickr-logo" d="M379.064 568.934h-85.668c101.797 0 184.32-82.523 184.32-184.32v85.811c0-101.797-82.523-184.32-184.32-184.32h85.668c-101.797 0-184.32 82.523-184.32 184.32v-85.811c0 101.797 82.523 184.32 184.32 184.32zM755.179 568.934h-85.668c101.797 0 184.32-82.523 184.32-184.32v85.811c0-101.797-82.523-184.32-184.32-184.32h85.668c-101.797 0-184.32 82.523-184.32 184.32v-85.811c0 101.797 82.523 184.32 184.32 184.32z" />
<glyph unicode="&#xe930;" glyph-name="google-plus-logo" d="M382.535 462.958v-85.052h140.689c-5.67-36.501-42.526-107.023-140.689-107.023-84.697 0-153.801 70.167-153.801 156.637s69.104 156.637 153.801 156.637c48.196 0 80.445-20.554 98.872-38.273l67.332 64.852c-43.235 40.399-99.227 64.852-166.205 64.852-137.146 0-248.067-110.921-248.067-248.067s110.921-248.067 248.067-248.067c143.17 0 238.144 100.644 238.144 242.397 0 16.302-1.772 28.705-3.898 41.108h-234.246zM914.107 462.958h-70.876v70.876h-70.876v-70.876h-70.876v-70.876h70.876v-70.876h70.876v70.876h70.876z" />
<glyph unicode="&#xe931;" glyph-name="hatebu-logo" d="M692.097 659.789h105.146v-310.493h-105.146v310.493zM806.912 254.824c0-33.565-27.326-60.775-61.033-60.775s-61.033 27.21-61.033 60.775c0 33.565 27.326 60.775 61.033 60.775s61.033-27.21 61.033-60.775zM243.712 660.992v-466.944h119.652v0.223c25.47-0.107 54.836-0.223 98.501-0.223 81.766 0 148.048 54.978 148.048 128.17 0 52.843-16.57 84.886-43.362 103.717-15.723 11.052-34.987 17.527-56.467 21.013 15.117 1.886 28.82 5.99 40.222 14.637 26.792 20.319 39.134 47.552 39.134 80.033 0 46.901-15.36 75.339-42.152 92.053s-61.388 26.519-102.271 26.519c-34.481 0-59.89 0.096-81.653 0.202v0.6zM363.364 556.293l57.405 0.602c0 0 48.95-0.605 48.95-50.549 0-39.112-47.739-40.317-47.739-40.317h-58.616zM363.364 380.586h71.785c0 0 53.305-0.001 53.305-55.272 0-43.284-56.152-44.617-56.152-44.617h-68.938z" />
<glyph unicode="&#xe932;" glyph-name="instagram-logo" d="M741.278 768.368c-23.634 0-42.984-19.352-42.984-43v-96.212c0-23.648 19.35-42.988 42.984-42.988h96.224c23.641 0 42.988 19.34 42.988 42.988v96.212c0 23.648-19.347 43-42.988 43h-96.224zM521.226 586.168c-97.806 0-177.088-79.277-177.088-177.076s79.282-177.088 177.088-177.088c97.792 0 177.068 79.289 177.068 177.088s-79.276 177.076-177.068 177.076zM168.086 479.704v-382.816c0-23.641 19.336-42.984 42.984-42.984h626.432c23.641 0 42.988 19.343 42.988 42.984v382.816h-84.62c5.787-22.575 8.876-46.232 8.876-70.612 0-156.597-126.937-283.54-283.52-283.54-156.597 0-283.552 126.943-283.552 283.54 0 24.38 3.089 48.037 8.876 70.612h-78.464z" />
<glyph unicode="&#xe933;" glyph-name="instagram-logo-new" d="M0 960v-1024h1024v1024h-1024zM512 806.4c97.335 0 109.541-0.412 147.768-2.156 38.148-1.74 64.199-7.801 86.996-16.66 23.568-9.159 43.558-21.411 63.484-41.336 19.925-19.925 32.177-39.916 41.336-63.484 8.859-22.797 14.92-48.848 16.66-86.996 1.744-38.227 2.156-50.432 2.156-147.768s-0.412-109.541-2.156-147.768c-1.74-38.148-7.801-64.199-16.66-86.996-9.159-23.568-21.411-43.558-41.336-63.484-19.926-19.925-39.916-32.177-63.484-41.336-22.797-8.859-48.848-14.92-86.996-16.66-38.227-1.744-50.433-2.156-147.768-2.156s-109.541 0.412-147.768 2.156c-38.147 1.74-64.203 7.801-87 16.66-23.568 9.159-43.555 21.411-63.48 41.336-19.925 19.926-32.177 39.916-41.336 63.484-8.859 22.797-14.919 48.848-16.66 86.996-1.744 38.227-2.156 50.433-2.156 147.768s0.412 109.541 2.156 147.768c1.741 38.148 7.801 64.199 16.66 86.996 9.159 23.568 21.411 43.559 41.336 63.484s39.912 32.177 63.48 41.336c22.797 8.859 48.853 14.92 87 16.66 38.227 1.744 50.432 2.156 147.768 2.156zM512 741.824c-95.697 0-107.032-0.368-144.824-2.092-34.944-1.593-53.923-7.432-66.552-12.34-16.729-6.502-28.666-14.266-41.208-26.808-12.541-12.541-20.307-24.479-26.808-41.208-4.908-12.629-10.746-31.608-12.34-66.552-1.724-37.792-2.092-49.127-2.092-144.824s0.368-107.032 2.092-144.824c1.594-34.944 7.432-53.923 12.34-66.552 6.501-16.729 14.267-28.667 26.808-41.208 12.541-12.542 24.479-20.307 41.208-26.808 12.629-4.908 31.608-10.747 66.552-12.34 37.788-1.725 49.119-2.092 144.824-2.092 95.703 0 107.038 0.367 144.824 2.092 34.944 1.593 53.923 7.432 66.552 12.34 16.729 6.501 28.667 14.266 41.208 26.808 12.542 12.541 20.306 24.479 26.808 41.208 4.908 12.629 10.747 31.608 12.34 66.552 1.724 37.792 2.092 49.128 2.092 144.824s-0.368 107.032-2.092 144.824c-1.593 34.944-7.432 53.923-12.34 66.552-6.502 16.729-14.266 28.666-26.808 41.208-12.541 12.541-24.479 20.306-41.208 26.808-12.629 4.908-31.608 10.747-66.552 12.34-37.792 1.724-49.128 2.092-144.824 2.092zM703.316 682.324c23.753 0 43.008-19.255 43.008-43.008s-19.255-43.008-43.008-43.008c-23.752 0-43.008 19.255-43.008 43.008s19.256 43.008 43.008 43.008zM512 632.044c101.644 0 184.044-82.398 184.044-184.044 0-101.644-82.4-184.044-184.044-184.044-101.646 0-184.044 82.4-184.044 184.044 0 101.646 82.398 184.044 184.044 184.044zM512 567.468c-65.981 0-119.468-53.487-119.468-119.468 0-65.979 53.487-119.468 119.468-119.468 65.979 0 119.468 53.489 119.468 119.468 0 65.981-53.489 119.468-119.468 119.468z" />
<glyph unicode="&#xe934;" glyph-name="instagram-logo-new-sq" d="M524.288 848.206c-114.252 0-128.578-0.483-173.449-2.531-44.777-2.042-75.36-9.157-102.12-19.555-27.664-10.751-51.124-25.133-74.512-48.52s-37.769-46.853-48.52-74.517c-10.399-26.759-17.512-57.338-19.555-102.115-2.047-44.871-2.531-59.196-2.531-173.449 0-114.251 0.484-128.578 2.531-173.449 2.044-44.777 9.156-75.356 19.555-102.115 10.751-27.664 25.132-51.128 48.52-74.517 23.388-23.387 46.848-37.769 74.512-48.52 26.759-10.398 57.343-17.513 102.12-19.555 44.871-2.047 59.196-2.531 173.449-2.531 114.251 0 128.578 0.484 173.449 2.531 44.777 2.042 75.356 9.157 102.115 19.555 27.664 10.751 51.128 25.133 74.517 48.52 23.387 23.389 37.769 46.853 48.52 74.517 10.399 26.759 17.513 57.338 19.555 102.115 2.047 44.871 2.531 59.198 2.531 173.449s-0.483 128.578-2.531 173.449c-2.042 44.777-9.157 75.356-19.555 102.115-10.751 27.664-25.133 51.13-48.52 74.517-23.389 23.387-46.853 37.769-74.517 48.52-26.759 10.399-57.338 17.513-102.115 19.555-44.871 2.047-59.198 2.531-173.449 2.531zM748.853 702.567c27.881 0 50.482-22.601 50.482-50.482s-22.601-50.482-50.482-50.482c-27.879 0-50.482 22.601-50.482 50.482s22.603 50.482 50.482 50.482zM524.288 643.549c119.309 0 216.029-96.718 216.029-216.029 0-119.309-96.72-216.029-216.029-216.029-119.311 0-216.029 96.72-216.029 216.029 0 119.311 96.718 216.029 216.029 216.029zM524.288 567.75c-77.447 0-140.23-62.783-140.23-140.23s62.783-140.23 140.23-140.23c77.446 0 140.23 62.785 140.23 140.23 0 77.447-62.785 140.23-140.23 140.23z" />
<glyph unicode="&#xe935;" glyph-name="line-logo" d="M743.143 491.452c10.309 0 18.699-8.41 18.699-18.77 0-10.331-8.39-18.758-18.699-18.758h-52.144v-33.571h52.144c10.309 0 18.699-8.422 18.699-18.764 0-10.354-8.39-18.776-18.699-18.776h-70.844c-10.292 0-18.682 8.422-18.682 18.776v142.205c0 10.354 8.373 18.776 18.682 18.776h70.844c10.309 0 18.699-8.422 18.699-18.776 0-10.337-8.39-18.753-18.699-18.753h-52.144v-33.589h52.144zM628.511 401.588c0-8.093-5.114-15.257-12.775-17.795-1.919-0.652-3.925-0.981-5.942-0.981-5.827 0-11.407 2.815-14.93 7.505l-72.591 99.237v-87.966c0-10.354-8.378-18.776-18.705-18.776-10.304 0-18.682 8.422-18.682 18.776v142.205c0 8.093 5.132 15.251 12.757 17.812 1.937 0.646 3.942 0.963 5.942 0.963 5.839 0 11.436-2.809 14.941-7.51l72.602-99.237v87.972c0 10.354 8.39 18.776 18.699 18.776s18.682-8.422 18.682-18.776v-142.205zM457.999 401.588c0-10.354-8.378-18.776-18.688-18.776s-18.682 8.422-18.682 18.776v142.205c0 10.354 8.373 18.776 18.682 18.776s18.688-8.422 18.688-18.776v-142.205zM384.736 382.812h-70.844c-10.309 0-18.682 8.422-18.682 18.776v142.205c0 10.354 8.373 18.776 18.682 18.776s18.699-8.422 18.699-18.776v-123.441h52.144c10.309 0 18.682-8.422 18.682-18.764 0-10.354-8.373-18.776-18.682-18.776zM880.808 478.098c0 160.115-159.938 290.403-356.517 290.403-196.584 0-356.522-130.288-356.522-290.403 0-143.56 126.827-263.794 298.172-286.538 11.597-2.509 27.4-7.689 31.393-17.639 3.603-9.056 2.368-23.206 1.155-32.36 0 0-4.172-25.253-5.080-30.635-1.557-9.050-7.183-35.377 30.882-19.289 38.042 16.076 205.302 121.353 280.099 207.784l-0.017-0.006c51.679 56.869 76.435 114.586 76.435 178.683z" />
<glyph unicode="&#xe936;" glyph-name="pinterest-logo" d="M478.784 303.651c-18.833-98.692-41.789-193.3-109.903-242.723-20.993 149.172 30.877 261.172 54.988 380.098-41.089 69.128 4.935 208.319 91.56 174.022 106.605-42.174-92.33-257.070 41.226-283.949 139.443-28 196.356 241.953 109.904 329.733-124.911 126.766-363.648 2.905-334.287-178.607 7.14-44.341 52.961-57.816 18.304-119.069-79.967 17.741-103.802 80.811-100.764 164.88 4.973 137.592 123.657 233.946 242.727 247.277 150.569 16.873 291.894-55.265 311.393-196.913 21.976-159.872-67.934-333.023-228.972-320.559-43.645 3.395-61.949 25.024-96.176 45.81z" />
<glyph unicode="&#xe937;" glyph-name="push7-logo" d="M559.051 375.357l-92.738-342.039 266.664 469.578h-255.076l75.375 318.827-237.677-446.365z" />
<glyph unicode="&#xe938;" glyph-name="rss-logo" d="M364.146 175.373c0-50.5-40.944-91.431-91.432-91.431-50.478 0-91.425 40.931-91.425 91.431s40.947 91.428 91.425 91.428c50.488 0 91.432-40.928 91.432-91.428zM181.395 405.873c85.682 0 166.194-33.49 226.718-94.306 60.613-60.897 93.994-141.959 93.994-228.266h132c0 250.65-203.088 454.572-452.713 454.572v-132zM181.589 639.873c305.31 0 553.697-249.744 553.697-556.71h132.002c0 379.757-307.605 688.714-685.698 688.714v-132.004z" />
<glyph unicode="&#xe939;" glyph-name="twitter-logo" d="M861.925 636.946c-24.846-11.019-51.546-18.466-79.571-21.815 28.605 17.147 50.571 44.297 60.915 76.649-26.767-15.877-56.417-27.407-87.974-33.622-25.273 26.925-61.278 43.751-101.124 43.751-76.513 0-138.545-62.029-138.545-138.537 0-10.858 1.228-21.432 3.589-31.572-115.141 5.777-217.223 60.932-285.554 144.749-11.925-20.461-18.755-44.257-18.755-69.649 0-48.064 24.458-90.469 61.631-115.312-22.709 0.719-44.071 6.951-62.751 17.327-0.010-0.578-0.012-1.156-0.012-1.741 0-67.125 47.755-123.119 111.132-135.846-11.625-3.166-23.865-4.858-36.499-4.858-8.928 0-17.606 0.866-26.065 2.485 17.63-55.041 68.792-95.095 129.416-96.213-47.414-37.156-107.151-59.305-172.058-59.305-11.183 0-22.211 0.654-33.049 1.934 61.311-39.307 134.133-62.241 212.37-62.241 254.826 0 394.173 211.104 394.173 394.177 0 6.007-0.133 11.982-0.4 17.922 27.066 19.533 50.556 43.934 69.13 71.716z" />
<glyph unicode="&#xe93a;" glyph-name="youtube-logo" d="M524.157 496.156c0 0-128.373-0.002-213.949-6.16-11.956-1.417-38.014-1.539-61.274-25.786-18.338-18.475-24.307-60.429-24.307-60.429s-6.115-49.266-6.115-98.534v-46.186c0-49.263 6.115-98.528 6.115-98.528s5.969-41.952 24.307-60.429c23.259-24.252 53.823-23.479 67.43-26.019 48.925-4.675 207.923-6.122 207.923-6.122s128.504 0.195 214.080 6.349c11.952 1.422 38.024 1.54 61.277 25.792 18.336 18.477 24.31 60.429 24.31 60.429s6.109 49.265 6.109 98.528v46.186c0 49.269-6.109 98.534-6.109 98.534s-5.975 41.954-24.31 60.429c-23.253 24.246-49.325 24.368-61.277 25.786-85.576 6.158-213.942 6.16-213.942 6.16h-0.269zM397.888 424.073v-38.912h-45.056v-235.52h-40.96v235.52h-43.008v38.87l129.024 0.042zM531.008 424.073h36.864l-0.042-89.472c11.977 14.737 25.535 23.126 39.174 23.126 14.764 0 24.687-8.53 29.635-23.859 2.476-8.231 4.96-21.483 4.96-40.867v-81.92c0-18.927-1.62-32.284-4.096-40.96-4.948-15.216-15.735-23.12-30.499-23.12-13.183 0-26.693 7.934-39.082 23.261l-0.051-20.621h-36.864v274.432zM723.062 357.407c18.6 0 33.366-7.413 43.76-21.418 7.752-10.351 12.058-26.351 12.058-48.224l0.010-41.869h-73.802v-36.778c-0.127-18.899 5.248-28.413 17.974-28.413 9.128 0 14.451 4.963 16.566 14.874 0.344 2.021 0.278 10.865 0.278 25.741h38.909v-5.805c0-11.948-0.981-20.402-1.315-24.115-1.251-8.218-4.164-15.654-8.672-22.214-10.256-14.86-25.473-22.186-44.845-22.186-19.397 0-34.158 6.979-44.877 20.963-7.877 10.24-12.931 25.465-12.931 47.213v71.68c0 21.873 4.597 38.782 12.474 49.133 10.723 14.004 25.485 21.418 44.413 21.418zM391.744 354.441h38.912v-165.888c0.907-5.749 3.35-7.846 8.298-7.846 7.449 0 14.187 6.47 22.422 18.086v155.648h38.912v-204.8h-38.912v22.528c-14.752-16.908-27.255-25.446-40.886-25.446-11.96 0-20.266 5.641-24.426 15.834-2.527 6.199-4.32 15.876-4.32 30.093v161.792zM587.168 323.59c-6.105 0-13.097-3.221-19.296-9.341l-0.042-124.202c6.201-6.2 13.233-9.341 19.338-9.341 10.693 0 15.52 7.846 15.52 28.326v88.064c0 20.48-4.827 26.493-15.52 26.493zM722.72 323.59c-12.382 0-17.632-5.218-17.632-24.358v-22.654l34.816 0.038v22.358c0 18.93-4.892 24.614-17.184 24.614zM715.776 510.596h-38.912v22.528c-14.752-16.908-27.257-25.448-40.888-25.448-11.96 0-20.265 5.642-24.424 15.835-2.527 6.199-4.319 15.876-4.319 30.093v163.84h38.912v-153.6c0-8.687 0-12.288 0-14.336 0.907-5.749 3.348-7.848 8.296-7.848 7.449 0 14.189 6.472 22.424 18.088v157.696h38.912v-206.848zM539.648 572.036c2.048-20.48-4.304-30.642-16.387-30.642s-18.429 10.162-16.381 30.642v81.92c-2.048 20.48 4.301 30.079 16.384 30.079s18.452-9.599 16.404-30.079l-0.020-81.92zM578.56 649.86c0 22.104-4.44 38.703-12.288 49.152-10.367 14.148-26.624 19.939-43.008 19.939-18.545 0-32.657-5.792-43.008-19.939-7.973-10.449-12.249-27.228-12.249-49.332l-0.039-73.548c0-21.981 3.804-37.169 11.777-47.515 10.351-14.105 27.135-21.578 43.519-21.578s33.462 7.473 43.827 21.578c7.848 10.346 11.469 25.534 11.469 47.515v73.728zM424.96 623.236v-112.64h-40.96v112.64c0 0-42.444 138.099-51.2 163.84h43.008l28.743-107.88 28.601 107.88h43.008l-51.2-163.84z" />
<glyph unicode="&#xe93b;" glyph-name="amp-logo" d="M483.328-61.931c-126.156 8.055-241.246 58.577-329.217 144.522-76.543 74.779-127.195 169.048-145.903 271.539-6.585 36.079-7.83 51.152-7.795 94.378 0.038 44.78 1.895 64.445 9.733 102.982 25.362 124.696 99.153 237.424 204.356 312.187 96.14 68.322 214.111 101.488 332.188 93.389 161.013-11.044 304.195-94.318 393.83-229.048 44.35-66.663 71.291-141.869 81.37-227.143 2.264-19.159 2.264-86.885 0-106.044-14.571-123.288-65.342-227.536-152.067-312.241-36.831-35.972-75.611-63.853-122.442-88.029-56.49-29.161-115.211-46.897-178.78-53.999-18.194-2.033-69.163-3.524-85.273-2.495zM580.93 319.561c78.536 130.186 109.172 182.045 109.632 185.577 0.721 5.535-2.729 11.801-9.119 16.564-3.593 2.678-5.077 2.747-67.372 3.113-48.877 0.288-63.697 0.744-63.695 1.964 0.003 1.816 37.341 222.6 38.406 227.096l0.698 2.946h-38.52l-107.104-177.928c-58.907-97.86-108.030-180.298-109.161-183.195-3.936-10.076 1.595-20.73 12.315-23.724 2.993-0.836 27.882-1.351 65.476-1.356l60.648-0.009-18.589-112.263c-10.224-61.744-18.9-113.883-19.281-115.863l-0.692-3.6h37.364l108.994 180.675z" />
<glyph unicode="&#xe93c;" glyph-name="amp-logo2" d="M480.129-61.441c-11.628 0.475-21.142 1.389-21.142 2.031 0 2.035 16.281 36.071 55.119 115.229 20.747 42.285 46.102 94.18 56.346 115.322 25.702 53.047 62.974 129.448 125.646 257.553 29.306 59.903 53.16 111.118 53.008 113.81s-1.775 5.846-3.608 7.008c-1.832 1.162-44.117 2.131-93.966 2.153l-90.634 0.038 1.381 7.047c0.76 3.876 17.327 92.096 36.817 196.043 26.413 140.873 36.329 188.997 38.942 189 9.329 0.013 71.262-23.11 99.997-37.332 158.072-78.234 261.477-226.345 282.432-404.54 4.142-35.225 1.636-105.116-5.115-142.664-19.034-105.851-68.498-199.078-146.041-275.25-87.452-85.905-198.539-135.829-322.054-144.734-19.654-1.417-38.041-2.352-40.86-2.077-2.819 0.273-14.639 0.887-26.268 1.362zM367.835-41.581c-48.572 14.37-93.449 35.225-134.443 62.479-63.519 42.229-105.586 83.994-146.931 145.877-74.707 111.817-101.703 250.367-74.735 383.558 27.525 135.941 113.084 258.28 232.499 332.446 62.338 38.716 140.704 65.862 212.739 73.691 26.935 2.927 84.992 3.217 106.108 0.529l13.109-1.669-14.428-29.471c-7.935-16.209-28.175-57.725-44.977-92.258s-44.884-92.194-62.405-128.136c-17.521-35.942-39.658-81.494-49.194-101.227s-28.864-59.519-42.952-88.414c-72.927-149.581-80.266-165.418-79.539-171.644l0.755-6.464 92.898-0.673c51.094-0.37 92.898-1.285 92.898-2.033 0-2.103-69.257-370.689-70.879-377.217-1.766-7.109-4.578-7.052-30.523 0.624z" />
<glyph unicode="&#xea8b;" glyph-name="googleplus" d="M307.518 507.961v-122.777h202.945c-8.127-52.713-61.279-154.405-202.945-154.405-122.118 0-221.834 101.253-221.834 226.007s99.715 226.007 221.834 226.007c69.625 0 115.968-29.651 142.545-55.129l97.080 93.565c-62.377 58.204-143.204 93.565-239.624 93.565-197.893-0.22-357.789-160.116-357.789-358.009s159.896-357.789 357.789-357.789c206.459 0 343.513 145.18 343.513 349.663 0 23.501-2.636 41.511-5.711 59.302h-337.802zM1074.271 518.284h-105.426v105.426h-105.426v-105.426h-105.426v-105.426h105.426v-105.426h105.426v105.426h105.426z" />
<glyph unicode="&#xea92;" glyph-name="instagram-new" d="M512 867.8c136.8 0 153-0.6 206.8-3 50-2.2 77-10.6 95-17.6 23.8-9.2 41-20.4 58.8-38.2 18-18 29-35 38.4-58.8 7-18 15.4-45.2 17.6-95 2.4-54 3-70.2 3-206.8s-0.6-153-3-206.8c-2.2-50-10.6-77-17.6-95-9.2-23.8-20.4-41-38.2-58.8-18-18-35-29-58.8-38.4-18-7-45.2-15.4-95-17.6-54-2.4-70.2-3-206.8-3s-153 0.6-206.8 3c-50 2.2-77 10.6-95 17.6-23.8 9.2-41 20.4-58.8 38.2-18 18-29 35-38.4 58.8-7 18-15.4 45.2-17.6 95-2.4 54-3 70.2-3 206.8s0.6 153 3 206.8c2.2 50 10.6 77 17.6 95 9.2 23.8 20.4 41 38.2 58.8 18 18 35 29 58.8 38.4 18 7 45.2 15.4 95 17.6 53.8 2.4 70 3 206.8 3zM512 960c-139 0-156.4-0.6-211-3-54.4-2.4-91.8-11.2-124.2-23.8-33.8-13.2-62.4-30.6-90.8-59.2-28.6-28.4-46-57-59.2-90.6-12.6-32.6-21.4-69.8-23.8-124.2-2.4-54.8-3-72.2-3-211.2s0.6-156.4 3-211c2.4-54.4 11.2-91.8 23.8-124.2 13.2-33.8 30.6-62.4 59.2-90.8 28.4-28.4 57-46 90.6-59 32.6-12.6 69.8-21.4 124.2-23.8 54.6-2.4 72-3 211-3s156.4 0.6 211 3c54.4 2.4 91.8 11.2 124.2 23.8 33.6 13 62.2 30.6 90.6 59s46 57 59 90.6c12.6 32.6 21.4 69.8 23.8 124.2 2.4 54.6 3 72 3 211s-0.6 156.4-3 211c-2.4 54.4-11.2 91.8-23.8 124.2-12.6 34-30 62.6-58.6 91-28.4 28.4-57 46-90.6 59-32.6 12.6-69.8 21.4-124.2 23.8-54.8 2.6-72.2 3.2-211.2 3.2v0zM512 711c-145.2 0-263-117.8-263-263s117.8-263 263-263 263 117.8 263 263c0 145.2-117.8 263-263 263zM512 277.4c-94.2 0-170.6 76.4-170.6 170.6s76.4 170.6 170.6 170.6c94.2 0 170.6-76.4 170.6-170.6s-76.4-170.6-170.6-170.6zM846.8 721.4c0-33.91-27.49-61.4-61.4-61.4s-61.4 27.49-61.4 61.4c0 33.91 27.49 61.4 61.4 61.4s61.4-27.49 61.4-61.4z" />
<glyph unicode="&#xeab0;" glyph-name="github-logo" d="M512.006 819.363c-210.266 0-380.769-170.466-380.769-380.763 0-168.23 109.1-310.957 260.389-361.305 19.027-3.522 26.024 8.262 26.024 18.32 0 9.076-0.356 39.074-0.516 70.892-105.936-23.036-128.288 44.926-128.288 44.926-17.314 44.008-42.276 55.713-42.276 55.713-34.544 23.634 2.61 23.147 2.61 23.147 38.224-2.686 58.36-39.242 58.36-39.242 33.964-58.207 89.076-41.379 110.812-31.65 3.412 24.606 13.276 41.408 24.174 50.916-84.578 9.626-173.483 42.278-173.483 188.176 0 41.57 14.876 75.538 39.236 102.203-3.952 9.592-16.997 48.319 3.684 100.768 0 0 31.982 10.228 104.74-39.035 30.368 8.44 62.942 12.668 95.306 12.818 32.351-0.146 64.95-4.378 95.381-12.818 72.682 49.264 104.604 39.035 104.604 39.035 20.728-52.451 7.698-91.176 3.744-100.768 24.408-26.664 39.187-60.633 39.187-102.203 0-146.247-89.077-178.446-173.866-187.872 13.656-11.818 25.824-34.986 25.824-70.509 0-50.948-0.444-91.952-0.444-104.492 0-10.136 6.858-22.010 26.156-18.27 151.206 50.404 260.17 193.078 260.17 361.256 0 210.297-170.477 380.763-380.757 380.763z" />
<glyph unicode="" glyph-name="github-logo" d="M512.006 819.363c-210.266 0-380.769-170.466-380.769-380.763 0-168.23 109.1-310.957 260.389-361.305 19.027-3.522 26.024 8.262 26.024 18.32 0 9.076-0.356 39.074-0.516 70.892-105.936-23.036-128.288 44.926-128.288 44.926-17.314 44.008-42.276 55.713-42.276 55.713-34.544 23.634 2.61 23.147 2.61 23.147 38.224-2.686 58.36-39.242 58.36-39.242 33.964-58.207 89.076-41.379 110.812-31.65 3.412 24.606 13.276 41.408 24.174 50.916-84.578 9.626-173.483 42.278-173.483 188.176 0 41.57 14.876 75.538 39.236 102.203-3.952 9.592-16.997 48.319 3.684 100.768 0 0 31.982 10.228 104.74-39.035 30.368 8.44 62.942 12.668 95.306 12.818 32.351-0.146 64.95-4.378 95.381-12.818 72.682 49.264 104.604 39.035 104.604 39.035 20.728-52.451 7.698-91.176 3.744-100.768 24.408-26.664 39.187-60.633 39.187-102.203 0-146.247-89.077-178.446-173.866-187.872 13.656-11.818 25.824-34.986 25.824-70.509 0-50.948-0.444-91.952-0.444-104.492 0-10.136 6.858-22.010 26.156-18.27 151.206 50.404 260.17 193.078 260.17 361.256 0 210.297-170.477 380.763-380.757 380.763z" />
<glyph unicode="instagram" glyph-name="instagram-new" d="M512 867.8c136.8 0 153-0.6 206.8-3 50-2.2 77-10.6 95-17.6 23.8-9.2 41-20.4 58.8-38.2 18-18 29-35 38.4-58.8 7-18 15.4-45.2 17.6-95 2.4-54 3-70.2 3-206.8s-0.6-153-3-206.8c-2.2-50-10.6-77-17.6-95-9.2-23.8-20.4-41-38.2-58.8-18-18-35-29-58.8-38.4-18-7-45.2-15.4-95-17.6-54-2.4-70.2-3-206.8-3s-153 0.6-206.8 3c-50 2.2-77 10.6-95 17.6-23.8 9.2-41 20.4-58.8 38.2-18 18-29 35-38.4 58.8-7 18-15.4 45.2-17.6 95-2.4 54-3 70.2-3 206.8s0.6 153 3 206.8c2.2 50 10.6 77 17.6 95 9.2 23.8 20.4 41 38.2 58.8 18 18 35 29 58.8 38.4 18 7 45.2 15.4 95 17.6 53.8 2.4 70 3 206.8 3zM512 960c-139 0-156.4-0.6-211-3-54.4-2.4-91.8-11.2-124.2-23.8-33.8-13.2-62.4-30.6-90.8-59.2-28.6-28.4-46-57-59.2-90.6-12.6-32.6-21.4-69.8-23.8-124.2-2.4-54.8-3-72.2-3-211.2s0.6-156.4 3-211c2.4-54.4 11.2-91.8 23.8-124.2 13.2-33.8 30.6-62.4 59.2-90.8 28.4-28.4 57-46 90.6-59 32.6-12.6 69.8-21.4 124.2-23.8 54.6-2.4 72-3 211-3s156.4 0.6 211 3c54.4 2.4 91.8 11.2 124.2 23.8 33.6 13 62.2 30.6 90.6 59s46 57 59 90.6c12.6 32.6 21.4 69.8 23.8 124.2 2.4 54.6 3 72 3 211s-0.6 156.4-3 211c-2.4 54.4-11.2 91.8-23.8 124.2-12.6 34-30 62.6-58.6 91-28.4 28.4-57 46-90.6 59-32.6 12.6-69.8 21.4-124.2 23.8-54.8 2.6-72.2 3.2-211.2 3.2v0zM512 711c-145.2 0-263-117.8-263-263s117.8-263 263-263 263 117.8 263 263c0 145.2-117.8 263-263 263zM512 277.4c-94.2 0-170.6 76.4-170.6 170.6s76.4 170.6 170.6 170.6c94.2 0 170.6-76.4 170.6-170.6s-76.4-170.6-170.6-170.6zM846.8 721.4c0-33.91-27.49-61.4-61.4-61.4s-61.4 27.49-61.4 61.4c0 33.91 27.49 61.4 61.4 61.4s61.4-27.49 61.4-61.4z" />
<glyph unicode="google-plus" glyph-name="googleplus" d="M307.518 507.961v-122.777h202.945c-8.127-52.713-61.279-154.405-202.945-154.405-122.118 0-221.834 101.253-221.834 226.007s99.715 226.007 221.834 226.007c69.625 0 115.968-29.651 142.545-55.129l97.080 93.565c-62.377 58.204-143.204 93.565-239.624 93.565-197.893-0.22-357.789-160.116-357.789-358.009s159.896-357.789 357.789-357.789c206.459 0 343.513 145.18 343.513 349.663 0 23.501-2.636 41.511-5.711 59.302h-337.802zM1074.271 518.284h-105.426v105.426h-105.426v-105.426h-105.426v-105.426h105.426v-105.426h105.426v105.426h105.426z" />
<glyph unicode="github" glyph-name="github-logo" d="M512.006 819.363c-210.266 0-380.769-170.466-380.769-380.763 0-168.23 109.1-310.957 260.389-361.305 19.027-3.522 26.024 8.262 26.024 18.32 0 9.076-0.356 39.074-0.516 70.892-105.936-23.036-128.288 44.926-128.288 44.926-17.314 44.008-42.276 55.713-42.276 55.713-34.544 23.634 2.61 23.147 2.61 23.147 38.224-2.686 58.36-39.242 58.36-39.242 33.964-58.207 89.076-41.379 110.812-31.65 3.412 24.606 13.276 41.408 24.174 50.916-84.578 9.626-173.483 42.278-173.483 188.176 0 41.57 14.876 75.538 39.236 102.203-3.952 9.592-16.997 48.319 3.684 100.768 0 0 31.982 10.228 104.74-39.035 30.368 8.44 62.942 12.668 95.306 12.818 32.351-0.146 64.95-4.378 95.381-12.818 72.682 49.264 104.604 39.035 104.604 39.035 20.728-52.451 7.698-91.176 3.744-100.768 24.408-26.664 39.187-60.633 39.187-102.203 0-146.247-89.077-178.446-173.866-187.872 13.656-11.818 25.824-34.986 25.824-70.509 0-50.948-0.444-91.952-0.444-104.492 0-10.136 6.858-22.010 26.156-18.27 151.206 50.404 260.17 193.078 260.17 361.256 0 210.297-170.477 380.763-380.757 380.763z" />
<glyph unicode="brand5" glyph-name="googleplus" d="M307.518 507.961v-122.777h202.945c-8.127-52.713-61.279-154.405-202.945-154.405-122.118 0-221.834 101.253-221.834 226.007s99.715 226.007 221.834 226.007c69.625 0 115.968-29.651 142.545-55.129l97.080 93.565c-62.377 58.204-143.204 93.565-239.624 93.565-197.893-0.22-357.789-160.116-357.789-358.009s159.896-357.789 357.789-357.789c206.459 0 343.513 145.18 343.513 349.663 0 23.501-2.636 41.511-5.711 59.302h-337.802zM1074.271 518.284h-105.426v105.426h-105.426v-105.426h-105.426v-105.426h105.426v-105.426h105.426v105.426h105.426z" />
<glyph unicode="brand40" glyph-name="github-logo" d="M512.006 819.363c-210.266 0-380.769-170.466-380.769-380.763 0-168.23 109.1-310.957 260.389-361.305 19.027-3.522 26.024 8.262 26.024 18.32 0 9.076-0.356 39.074-0.516 70.892-105.936-23.036-128.288 44.926-128.288 44.926-17.314 44.008-42.276 55.713-42.276 55.713-34.544 23.634 2.61 23.147 2.61 23.147 38.224-2.686 58.36-39.242 58.36-39.242 33.964-58.207 89.076-41.379 110.812-31.65 3.412 24.606 13.276 41.408 24.174 50.916-84.578 9.626-173.483 42.278-173.483 188.176 0 41.57 14.876 75.538 39.236 102.203-3.952 9.592-16.997 48.319 3.684 100.768 0 0 31.982 10.228 104.74-39.035 30.368 8.44 62.942 12.668 95.306 12.818 32.351-0.146 64.95-4.378 95.381-12.818 72.682 49.264 104.604 39.035 104.604 39.035 20.728-52.451 7.698-91.176 3.744-100.768 24.408-26.664 39.187-60.633 39.187-102.203 0-146.247-89.077-178.446-173.866-187.872 13.656-11.818 25.824-34.986 25.824-70.509 0-50.948-0.444-91.952-0.444-104.492 0-10.136 6.858-22.010 26.156-18.27 151.206 50.404 260.17 193.078 260.17 361.256 0 210.297-170.477 380.763-380.757 380.763z" />
<glyph unicode="brand12" glyph-name="instagram-new" d="M512 867.8c136.8 0 153-0.6 206.8-3 50-2.2 77-10.6 95-17.6 23.8-9.2 41-20.4 58.8-38.2 18-18 29-35 38.4-58.8 7-18 15.4-45.2 17.6-95 2.4-54 3-70.2 3-206.8s-0.6-153-3-206.8c-2.2-50-10.6-77-17.6-95-9.2-23.8-20.4-41-38.2-58.8-18-18-35-29-58.8-38.4-18-7-45.2-15.4-95-17.6-54-2.4-70.2-3-206.8-3s-153 0.6-206.8 3c-50 2.2-77 10.6-95 17.6-23.8 9.2-41 20.4-58.8 38.2-18 18-29 35-38.4 58.8-7 18-15.4 45.2-17.6 95-2.4 54-3 70.2-3 206.8s0.6 153 3 206.8c2.2 50 10.6 77 17.6 95 9.2 23.8 20.4 41 38.2 58.8 18 18 35 29 58.8 38.4 18 7 45.2 15.4 95 17.6 53.8 2.4 70 3 206.8 3zM512 960c-139 0-156.4-0.6-211-3-54.4-2.4-91.8-11.2-124.2-23.8-33.8-13.2-62.4-30.6-90.8-59.2-28.6-28.4-46-57-59.2-90.6-12.6-32.6-21.4-69.8-23.8-124.2-2.4-54.8-3-72.2-3-211.2s0.6-156.4 3-211c2.4-54.4 11.2-91.8 23.8-124.2 13.2-33.8 30.6-62.4 59.2-90.8 28.4-28.4 57-46 90.6-59 32.6-12.6 69.8-21.4 124.2-23.8 54.6-2.4 72-3 211-3s156.4 0.6 211 3c54.4 2.4 91.8 11.2 124.2 23.8 33.6 13 62.2 30.6 90.6 59s46 57 59 90.6c12.6 32.6 21.4 69.8 23.8 124.2 2.4 54.6 3 72 3 211s-0.6 156.4-3 211c-2.4 54.4-11.2 91.8-23.8 124.2-12.6 34-30 62.6-58.6 91-28.4 28.4-57 46-90.6 59-32.6 12.6-69.8 21.4-124.2 23.8-54.8 2.6-72.2 3.2-211.2 3.2v0zM512 711c-145.2 0-263-117.8-263-263s117.8-263 263-263 263 117.8 263 263c0 145.2-117.8 263-263 263zM512 277.4c-94.2 0-170.6 76.4-170.6 170.6s76.4 170.6 170.6 170.6c94.2 0 170.6-76.4 170.6-170.6s-76.4-170.6-170.6-170.6zM846.8 721.4c0-33.91-27.49-61.4-61.4-61.4s-61.4 27.49-61.4 61.4c0 33.91 27.49 61.4 61.4 61.4s61.4-27.49 61.4-61.4z" />
</font>
</defs>
</svg>
